Browse Collections Artists Sources   Search Dates

Add Show    List Management    Help


Grateful Dead 09/26/91
Boston Garden, Boston, MA
Comments Add Comment    Source Collectors    Add to Collection    Add to Want List    History
Source # 84852 Other Sources
Entered by Matt Vernon
Checksums ffp , flac-md5
Disc Counts 2 / 3
Media Size
Date Circulated
Date Added
05/05/2007
05/07/2007
Source Summary flac16; AUD Source: Schoeps CMC3/MK4 (ORTF) > unknown power supply > Panasonic SV-255 (lead deck) > Coax SPDIF > Casio DA-7 Dat (first deck out) > Agfa Dat tape. Mics on 7-foot stand secured to hockey-wall at end of floor, behind lighting board, in the center. Transfer: MAD > Sony TCD-D10P > Coax SPDIF > Audiophile 2496 > Soundforge (at 48kHz) > CD-Wave > R8Brain v1.9 (downsample to 44.1kHz) > TLH > FLAC. Taped and transferred (May 2007) by Andrew F. 
  Archive
Source Information - Download Text | Download Zip
GRATEFUL DEAD
Boston Garden
Boston MA
09-26-1991

Disc One (68:16)

01 crowd & tuning
02 Jack Straw >
03 Cold Rain & Snow
04 Wang Dang Doodle
05 Candyman
06 Mexicali Blues >
07 Cumberland Blues
08 Picasso Moon >
09 Box of Rain

Disc Two (45:15)

01 crowd & tuning / prelude >
02 Dark Star >
03 Saint of Circumstance >
04 Eyes of the World >
05 Drums >

Disc Three (47:43)

01 Space >
02 The Other One >
03 Dark Star >
04 Attics of My Life >
05 Good Lovin'
-- encore --
06 crowd & tuning
07 Brokedown Palace >
08 We Bid You Goodnight

AUD Source: Schoeps CMC3/MK4 (ORTF) > unknown power supply > Panasonic SV-255 (lead deck) > Coax SPDIF > Casio DA-7 Dat (first deck out) > Agfa Dat tape. Mics on 7-foot stand secured to hockey-wall at end of floor, behind lighting board, in the center.

Transfer: MAD > Sony TCD-D10P > Coax SPDIF > Audiophile 2496 > Soundforge (at 48kHz) > CD-Wave > R8Brain v1.9 (downsample to 44.1kHz) > TLH > FLAC.  
Taped and transferred (May 2007) by Andrew F.

Notes:
- Soundforge used to make fades.
- TLH used for SBE-OK, FLAC compression, and making checksums.
- Discs two and three can be rejoined seamlessly onto longer media.
- There's a minor low-end rumble noticeable at times. Since no one was
standing or walking near the mics, I'm guessing this might be from the
Gaahdin's ventilation system blowing onto the mics?...


shntool

    length     expanded size   cdr  WAVE problems filename
     7:14.68       76717580    ---   --   ---xx   gd1991-09-26d1t01.flac
     5:47.61       61354316    ---   --   ---xx   gd1991-09-26d1t02.flac
     9:25.25       99724844    ---   --   ---xx   gd1991-09-26d1t03.flac
     9:43.37      102928268    ---   --   ---xx   gd1991-09-26d1t04.flac
    10:19.07      109208108    ---   --   ---xx   gd1991-09-26d1t05.flac
     5:38.59       59762012    ---   --   ---xx   gd1991-09-26d1t06.flac
     8:10.15       86471324    ---   --   ---xx   gd1991-09-26d1t07.flac
     6:42.17       70952828    ---   --   ---xx   gd1991-09-26d1t08.flac
     5:14.65       55542524    ---   --   ---xx   gd1991-09-26d1t09.flac
     3:42.12       39189068    ---   --   ---xx   gd1991-09-26d2t01.flac
    13:17.69      140753132    ---   --   ---xx   gd1991-09-26d2t02.flac
     6:44.49       71380892    ---   --   ---xx   gd1991-09-26d2t03.flac
    12:44.70      134934284    ---   --   ---xx   gd1991-09-26d2t04.flac
     8:45.68       92769980    ---   --   ---xx   gd1991-09-26d2t05.flac
    11:33.64      122395772    ---   --   ---xx   gd1991-09-26d3t01.flac
     7:31.67       79714028    ---   --   ---xx   gd1991-09-26d3t02.flac
     6:42.46       71021036    ---   --   ---xx   gd1991-09-26d3t03.flac
     5:23.00       56977244    ---   --   ---xx   gd1991-09-26d3t04.flac
     7:00.57       74222108    ---   --   ---xx   gd1991-09-26d3t05.flac
     0:39.30        6950204    ---   --   ---xx   gd1991-09-26d3t06.flac
     5:19.66       56426876    ---   --   ---xx   gd1991-09-26d3t07.flac
     3:32.17       37436828    ---   --   ---xx   gd1991-09-26d3t08.flac
   161:15.69     1706833256 B                     (totals for 22 files, 0.4985 overall compression ratio)

There were no sector boundary errors.
Show Checksums
ffp
gd1991-09-26d1t01.flac:45ce80ea4b6b6d0381eedabecfc64ab4
gd1991-09-26d1t02.flac:f80b960adb944437e2b0817249a20f6c
gd1991-09-26d1t03.flac:29e61b058b78b98efc01e26cf8266877
gd1991-09-26d1t04.flac:7065f440422447f209fa4bb53f919e48
gd1991-09-26d1t05.flac:64fd2af93cc059ff5f59f8e3fc7b317c
gd1991-09-26d1t06.flac:13b4f8ffeb474c395f431c2ae4520cae
gd1991-09-26d1t07.flac:cd41e6ba7f387d843b6ca09cc318b135
gd1991-09-26d1t08.flac:d2a25b53977ad2429f7e5d4a4145b8e2
gd1991-09-26d1t09.flac:92bcd5a155f8fb9899ebfcb2249c667e
gd1991-09-26d2t01.flac:4aa9f7acf69c43364a2e75e468055eba
gd1991-09-26d2t02.flac:09c9123df5b2e3da7d7f59000dc4807c
gd1991-09-26d2t03.flac:63823cf01a3ecadc6b968baa27a881fd
gd1991-09-26d2t04.flac:233443e8061025c14466b737eca04ef9
gd1991-09-26d2t05.flac:8a8b81fb53f02b5ba14dd751f040ba5f
gd1991-09-26d3t01.flac:90fe77634778023a02a97f7705787243
gd1991-09-26d3t02.flac:658adddbcec3d27f304be3e0c9287896
gd1991-09-26d3t03.flac:8cb3c0960e94162e9848f4be48f3de43
gd1991-09-26d3t04.flac:095f69c704018ac808785b627fd975d6
gd1991-09-26d3t05.flac:50db975a93b3d70977ee516a72fd81e8
gd1991-09-26d3t06.flac:11e49f0804c4c16cd21fdbdda5d80b34
gd1991-09-26d3t07.flac:618ebf1ddc6ec82f91d7a5157c0e84a7
gd1991-09-26d3t08.flac:776e8040385f072352cd499ab89b8378
flac-md5
a27ca661b36fee12bee6276a7f3c2188 *gd1991-09-26d1t01.flac
277d8bbbd5731e58f77251dd0b73d378 *gd1991-09-26d1t02.flac
2abbe2e8df6e75a6e8dba4a364bf413f *gd1991-09-26d1t03.flac
387a9973f7c764c1cd8a937c494277be *gd1991-09-26d1t04.flac
fd5f4111863c99f3c7fe8d58f98d4ddd *gd1991-09-26d1t05.flac
6238d395d6603b538a80f34c23c8579e *gd1991-09-26d1t06.flac
630cf1c150f5615ef80ab33f2f426ccb *gd1991-09-26d1t07.flac
3988b2a7449186760daceee01253a05f *gd1991-09-26d1t08.flac
a036c7d0280cb0ed1955c12c8b21404d *gd1991-09-26d1t09.flac
02988673919112591aea79ff0c1a7e3e *gd1991-09-26d2t01.flac
500e228fb0ae9c09efd4f7b62ce8bcc1 *gd1991-09-26d2t02.flac
daf113441b4cd256adc6c4eb2e81ff57 *gd1991-09-26d2t03.flac
cce5cfc794ef8190022c26ebf339f278 *gd1991-09-26d2t04.flac
83f4d33f0501757401d91418a067eb78 *gd1991-09-26d2t05.flac
cbd41ec08f3f7a9add78a511185afcbc *gd1991-09-26d3t01.flac
b40472951ba0aec8451fa613c5f0dcc2 *gd1991-09-26d3t02.flac
c723aa2bc0bc349e3b369aaaf7ce5474 *gd1991-09-26d3t03.flac
e51618406e543fea8e0f8d5b8052dace *gd1991-09-26d3t04.flac
5173e653fdba79a27ad9c76f037a3f3c *gd1991-09-26d3t05.flac
95eb055f132aaebe9874490537934ad1 *gd1991-09-26d3t06.flac
87a72e13cb22d7eea913e45c9b1dfb06 *gd1991-09-26d3t07.flac
557ae0983ee3d44f139118e25f66e679 *gd1991-09-26d3t08.flac

Comments
Add Comment
Other Sources (comments)
SBD> MC> DAT> CDA; high... (1) SBD(1)>DAT>CD>EAC>CDWAVE>MK... (6) flac16/48; Set 2... (0) flac16; Set 2 only -... (1) flac16; Recording... (0) flac16/48; AUD... (0) flac16; Sennheiser... (0) flac16; Matrix by... (0) flac16; Recording... (1) flac16; Lineage:... (0) flac16; Matrix of... (0) DTS Audio 5.1; Mix... (0) flac24; Master... (0) flac16; Master... (0) flac24; Master... (0) flac16; Master... (0) flac16; DSBD Masters... (0) flac16/48kHz;... (0)
Date User Comment