Browse Collections Artists Sources   Search Dates

Add Show    List Management    Help


Grateful Dead 09/26/91
Boston Garden, Boston, MA
Comments Add Comment    Source Collectors    Add to Collection    Add to Want List    History
Source # 84853 Other Sources
Entered by Matt Vernon
Checksums ffp , flac-md5
Disc Counts 2 / 0
Media Size
Date Circulated
Date Added
05/05/2007
05/07/2007
Source Summary flac16/48; AUD Source: Schoeps CMC3/MK4 (ORTF) > unknown power supply > Panasonic SV-255 (lead deck) > Coax SPDIF > Casio DA-7 Dat (first deck out) > Agfa Dat tape. Mics on 7-foot stand secured to hockey-wall at end of floor, behind lighting board, in the center. Transfer: MAD > Sony TCD-D10P > Coax SPDIF > Audiophile 2496 > Soundforge (at 48kHz) > CD-Wave > TLH > FLAC. Taped and transferred by Andrew F. 
  Archive
Source Information - Download Text | Download Zip
GRATEFUL DEAD
Boston Garden
Boston MA
09-26-1991

NOTE: This is the 48kHz file-set for archiving. These files cannot be
burned to CDR. To make audio CDs, get the 44.1kHz file-set. Please do
not downsample and recirculate these files for CDR...

Set One (68:16)

01 crowd & tuning
02 Jack Straw >
03 Cold Rain & Snow
04 Wang Dang Doodle
05 Candyman
06 Mexicali Blues >
07 Cumberland Blues
08 Picasso Moon >
09 Box of Rain

Set Two (92:59)

10 crowd & tuning / prelude >
11 Dark Star >
12 Saint of Circumstance >
13 Eyes of the World >
14 Drums >
15 Space >
16 The Other One >
17 Dark Star >
18 Attics of My Life >
19 Good Lovin'
-- encore --
20 crowd & tuning
21 Brokedown Palace >
22 We Bid You Goodnight

AUD Source: Schoeps CMC3/MK4 (ORTF) > unknown power supply > Panasonic SV-255 (lead deck) > Coax SPDIF > Casio DA-7 Dat (first deck out) > Agfa Dat tape. Mics on 7-foot stand secured to hockey-wall at end of floor, behind lighting board, in the center.

Transfer: MAD > Sony TCD-D10P > Coax SPDIF > Audiophile 2496 > Soundforge (at 48kHz) > CD-Wave > TLH > FLAC. Taped and transferred by Andrew F.

Notes:
- Soundforge used to make fades.
- TLH used for SBE-OK, FLAC compression, and making checksums.
- There's a minor low-end rumble noticeable at times. Since no one was
standing or walking near the mics, I'm guessing this might be from the
Gaahdin's ventilation system blowing onto the mics?...

shntool

    length     expanded size   cdr  WAVE problems filename
     7:14.907      83502124    cxx   --   ---xx   gd1991-09-26s1t01.flac
     5:47.813      66780204    cxx   --   ---xx   gd1991-09-26s1t02.flac
     9:25.333     108544044    cxx   --   ---xx   gd1991-09-26s1t03.flac
     9:43.493     112030764    cxx   --   ---xx   gd1991-09-26s1t04.flac
    10:19.093     118865964    cxx   --   ---xx   gd1991-09-26s1t05.flac
     5:38.787      65047084    cxx   --   ---xx   gd1991-09-26s1t06.flac
     8:10.200      94118444    cxx   --   ---xx   gd1991-09-26s1t07.flac
     6:42.227      77227564    cxx   --   ---xx   gd1991-09-26s1t08.flac
     5:14.868      60454724    cxx   --   ---xx   gd1991-09-26s1t09.flac
     3:42.160      42654764    cxx   --   ---xx   gd1991-09-26s2t01.flac
    13:17.920     153200684    cxx   --   ---xx   gd1991-09-26s2t02.flac
     6:44.653      77693484    cxx   --   ---xx   gd1991-09-26s2t03.flac
    12:44.933     146867244    cxx   --   ---xx   gd1991-09-26s2t04.flac
     8:45.907     100974124    cxx   --   ---xx   gd1991-09-26s2t05.flac
    11:33.853     133219884    cxx   --   ---xx   gd1991-09-26s2t06.flac
     7:31.893      86763564    cxx   --   ---xx   gd1991-09-26s2t07.flac
     6:42.613      77301804    cxx   --   ---xx   gd1991-09-26s2t08.flac
     5:23.000      62016044    cxx   --   ---xx   gd1991-09-26s2t09.flac
     7:00.760      80785964    cxx   --   ---xx   gd1991-09-26s2t10.flac
     0:39.400       7564844    cxx   --   ---xx   gd1991-09-26s2t11.flac
     5:19.880      61417004    cxx   --   ---xx   gd1991-09-26s2t12.flac
     3:32.215      40745308    cxx   --   ---xx   gd1991-09-26s2t13.flac
   161:15.910    1857775632 B                     (totals for 22 files, 0.4833 overall compression ratio)

There were no sector boundary errors.
Show Checksums
ffp
gd1991-09-26s1t01.flac:ba72c18b98e3b1bcf6e83f90dae5ab18
gd1991-09-26s1t02.flac:c42a974abf20a5d7309eb6bab017ada7
gd1991-09-26s1t03.flac:387e414d615b5d201a4d7d8ba5278e18
gd1991-09-26s1t04.flac:0f7fac64fdefeca852dcfcec52e3c2f3
gd1991-09-26s1t05.flac:393d16674f19bb6dd3e2f0dfbb6e5910
gd1991-09-26s1t06.flac:2179726d4fa104ebac82a09ec72d179f
gd1991-09-26s1t07.flac:2a122cf41e971b1d164bf5fcfad15852
gd1991-09-26s1t08.flac:c842295ee671f09ef5ca0a0ab7632fe0
gd1991-09-26s1t09.flac:4a7dc8494ffdc79c0712404d3c54b970
gd1991-09-26s2t01.flac:c68d6eb83fb3aec11ea7142eb3d63839
gd1991-09-26s2t02.flac:7639288e59d172cb54c3a7392df02597
gd1991-09-26s2t03.flac:862b7c85f565eca1627d083be60407cb
gd1991-09-26s2t04.flac:3700497974b6c02551c27d6c9509bf53
gd1991-09-26s2t05.flac:09b9c9c0c674756b405148f037c85b03
gd1991-09-26s2t06.flac:d6340cbdc894ac6767c4fe5d285666db
gd1991-09-26s2t07.flac:8558582379b761bdb83bc724ec6f8d39
gd1991-09-26s2t08.flac:4383200806af44dd7b4807711f567d10
gd1991-09-26s2t09.flac:99f97b1222ed5223ea6ac2b7b3116f1d
gd1991-09-26s2t10.flac:22c9628c1d6e6e9205bb6d3acd8853a0
gd1991-09-26s2t11.flac:77f9b248c5eaded51bb56c5bea351926
gd1991-09-26s2t12.flac:ad6b245da4969ff408018a4b234ed56b
gd1991-09-26s2t13.flac:a1664733d58eb24c599861589291b6b2
flac-md5
b0094d74af06a5cb025ab62bab3550da *gd1991-09-26s1t01.flac
dfb0e25505e36ad4ab05d662d07fb891 *gd1991-09-26s1t02.flac
603da5b7854561edbf5ad25ae1f0b16f *gd1991-09-26s1t03.flac
3070d9b1bbad00acafee26ae5e157ffe *gd1991-09-26s1t04.flac
dd6fb68717e96668a69fed4f62993bce *gd1991-09-26s1t05.flac
910acd2d5d11ce90eadc028229789f5f *gd1991-09-26s1t06.flac
465a0535f1f037d519d561a3e09e4046 *gd1991-09-26s1t07.flac
9b25a913c81e1453fa0f842fc0744b80 *gd1991-09-26s1t08.flac
572faec57b060d3d6a01833bf780a575 *gd1991-09-26s1t09.flac
444f321151a93c427e7a42b05fc97367 *gd1991-09-26s2t01.flac
e6694b4295cf8e6936a789a7042d1e43 *gd1991-09-26s2t02.flac
1db6097457dcd6710b5ac825b5276bc6 *gd1991-09-26s2t03.flac
c341c38e1d7913ef5b734e4386731543 *gd1991-09-26s2t04.flac
00baf43b5d164abb51226c1966dee8d6 *gd1991-09-26s2t05.flac
76ca179bfaf613f43f3d37158ea75069 *gd1991-09-26s2t06.flac
0c8d8ca92e8c4f4238437cdbd980dec0 *gd1991-09-26s2t07.flac
ce25a91a04fd7f90438abcad38d48830 *gd1991-09-26s2t08.flac
2f467f225fb5b013e6826d6715f55a0e *gd1991-09-26s2t09.flac
caada017d31271f7439d451d72748844 *gd1991-09-26s2t10.flac
ce4af7a9934a093ceb70c6a6cef2e264 *gd1991-09-26s2t11.flac
faa9e060ff4df5b0efa118b93a38e42d *gd1991-09-26s2t12.flac
b72e41d65829b068e09d64d86dc54924 *gd1991-09-26s2t13.flac

Comments
Add Comment
Other Sources (comments)
SBD> MC> DAT> CDA; high... (1) SBD(1)>DAT>CD>EAC>CDWAVE>MK... (6) flac16/48; Set 2... (0) flac16; Set 2 only -... (1) flac16; Recording... (0) flac16; AUD Source:... (0) flac16; Sennheiser... (0) flac16; Matrix by... (0) flac16; Recording... (1) flac16; Lineage:... (0) flac16; Matrix of... (0) DTS Audio 5.1; Mix... (0) flac24; Master... (0) flac16; Master... (0) flac24; Master... (0) flac16; Master... (0) flac16; DSBD Masters... (0) flac16/48kHz;... (0)
Date User Comment