Browse Collections Artists Sources   Search Dates

Add Show    List Management    Help


Gov't Mule 05/05/07
Contemporary Arts Center, New Orleans, LA
Comments Add Comment    Source Collectors    Add to Collection    Add to Want List    History
Source # 84880 Other Sources
Entered by
Checksums flac.ffp
Disc Counts 2 / 2
Media Size
Date Circulated
Date Added
05/06/07
05/08/2007
Source Summary Source: Akg c460b/ck63(DIN)>D Mod UA-5>H120
Location: DFC, Directly FOB @ 9' high
Transfer: H120>USB>Wavelab>cdwave>FLAC 
Source Information - Download Text | Download Zip
Gov't Mule
2007-05-05
Contemporary Arts Center
New Orleans, LA

Source: Akg c460b/ck63(DIN)>D Mod UA-5>H120
Location: DFC, Directly FOB @ 9' high
Transfer: H120>USB>Wavelab>cdwave>FLAC
Taper: jkbyram

Show was 2 sets

Disc 1
Set 1 (71:38)
01. John The Revelator
02. Thorazine Shuffle
03. A Million miles From Yesterday
04. Lively Up Yourself
05. Life Before Insanity
06. 32-20 Blues
07. Unring The Bell>
08. Blind Man In The Dark

Disc 2
Set 2 (80:39)
01. Hunger Strike>
02. Dear Mr. Fantasy>
03. Hunger Strike
04. Time To Confess
05. Mr. High & Mighty
06. Brand New Angel
07. Streamline Woman
08. Drums
09. Brighter Days
10. Like Flies
11. Mule
ENCORE
12. Going Down Slow*
13. Gonna Send You Back To Georgia*

* Smokey Greenwell on harmonica


Notes:
-wavelab used to add fades
-some crowd edited before encore to allow burning
on 2 cd's (requires overburn)

Dr. John the Night Tripper opened

    length     expanded size   cdr  WAVE problems filename
     6:48.35       72053564    ---   --   -----   mule2007-05-05d1t01.wav
    10:47.64      114281372    ---   --   -----   mule2007-05-05d1t02.wav
     4:29.49       47566892    ---   --   -----   mule2007-05-05d1t03.wav
    11:00.61      116567516    ---   --   -----   mule2007-05-05d1t04.wav
     7:59.22       84547388    ---   --   -----   mule2007-05-05d1t05.wav
     9:06.22       96366188    ---   --   -----   mule2007-05-05d1t06.wav
     9:40.60      102453164    ---   --   -----   mule2007-05-05d1t07.wav
    11:43.25      124068044    ---   --   -----   mule2007-05-05d1t08.wav
     4:45.19       50318732    ---   --   -----   mule2007-05-05d2t01.wav
     2:16.46       24098636    ---   --   -----   mule2007-05-05d2t02.wav
     1:57.51       20758796    ---   --   -----   mule2007-05-05d2t03.wav
    10:10.69      107766332    ---   --   -----   mule2007-05-05d2t04.wav
     5:31.35       58470764    ---   --   -----   mule2007-05-05d2t05.wav
     7:12.12       76233068    ---   --   -----   mule2007-05-05d2t06.wav
     4:10.64       44250572    ---   --   -----   mule2007-05-05d2t07.wav
     8:17.38       87760220    ---   --   -----   mule2007-05-05d2t08.wav
     6:42.39       71004572    ---   --   -----   mule2007-05-05d2t09.wav
     5:35.38       59183420    ---   --   -----   mule2007-05-05d2t10.wav
     7:28.09       79052464    ---   h-   -----   mule2007-05-05d2t11.wav
     8:05.49       85669292    ---   --   -----   mule2007-05-05d2t12.wav
     8:23.41       88825676    ---   --   -----   mule2007-05-05d2t13.wav
   152:14.23     1611296672 B                     (totals for 21 files, 1.0000 overall compression ratio)
Show Checksums
flac.ffp
mule2007-05-05d2t08.flac:dfae80641a38293bcd1a7f62777459db
mule2007-05-05d2t09.flac:491427fc9e4765574261bd83443121a7
mule2007-05-05d2t10.flac:fbd33ce40f6d6f8b6a2254e73de3bf77
mule2007-05-05d2t11.flac:fe573bdc66d92533de14d16088fadda9
mule2007-05-05d2t12.flac:aecdd304e792f3e759557eadbfbe12d3
mule2007-05-05d2t13.flac:2f80a041f999332de13342a4753150ec
mule2007-05-05d1t01.flac:b60c0eee68c58e581e5ad4f4d55b89ae
mule2007-05-05d1t02.flac:53dde9def6aabc5f61d694d033348245
mule2007-05-05d1t03.flac:009b01ba138bbf3030bdf192a0b89544
mule2007-05-05d1t04.flac:1a759970534a3501d1305773b5457bc8
mule2007-05-05d1t05.flac:79902dd81fc18b3c6ef11273f75fcace
mule2007-05-05d1t06.flac:6ffe6e826b1027dfc1635abbfde7ed9a
mule2007-05-05d1t07.flac:b56b7ce87f7188f8757db8c2857bee83
mule2007-05-05d1t08.flac:0e2303f837806e3d6a5bf36b3f0211e9
mule2007-05-05d2t01.flac:dd4ea5f61c02115e7fba4d8c64ed0ee3
mule2007-05-05d2t02.flac:2d8bbfafd3473e900b6523a04873218b
mule2007-05-05d2t03.flac:62d98e3192eb585e1eae46af9c796315
mule2007-05-05d2t04.flac:eadd7ced4cd8b9904aafd9020bc2e857
mule2007-05-05d2t05.flac:83b06c2ceb07dc0a6666d0086c6b9dc7
mule2007-05-05d2t06.flac:1194e900cc257662cbd83324a11cebed
mule2007-05-05d2t07.flac:1e8ea69c6a6c2a5a859a480cb5325600

Comments
Add Comment
Other Sources (comments)
Source: Schoeps... (0)
Date User Comment