Browse Collections Artists Sources   Search Dates

Add Show    List Management    Help


Grateful Dead 06/14/87
Ventura County Fairgrounds, Ventura, CA
Comments Add Comment    Source Collectors    Add to Collection    Add to Want List    History
Source # 84953 Other Sources
Entered by Matt Vernon
Checksums ffp , flac-md5
Disc Counts 8 / 0
Media Size
Date Circulated
Date Added
05/10/2007
05/10/2007
Source Summary flac24; Source: Audience FOB Recording, DFC Media: TDK SA-X Lineage: AKG C460b pre's with Ck61uls capsules > Uher CR240 > MAC Transfer: MAC > Nakamichi DR-1 > Grace Design Lunatec V3 > AES > Sound Devices 722 > WAV Mastering: WaveLab 5.0 iZotope Ozone 3 > CDWAV1.9 > FLAC (level 8) Taped by: D. Thompson Transfer by: A. Egert Mastering by: B. Koucky 
  Archive
Source Information - Download Text | Download Zip
MOTB Release: 0017/24bit
Release Date: May 10, 2007

Band: Grateful Dead
Date: 06/14/1987 - Sunday
Venue: Ventura County Fairgrounds
Location: Ventura, CA

Source: Audience FOB Recording, DFC
Media: TDK SA-X
Lineage: AKG C460b pre's with Ck61uls capsules > Uher CR240 > MAC
Transfer: MAC > Nakamichi DR-1 > Grace Design Lunatec V3 > AES > Sound Devices 722 > WAV
Mastering: WaveLab 5.0 iZotope Ozone 3 > CDWAV1.9 > FLAC (level 8)

Taped by: D. Thompson
Transfer by: A. Egert
Mastering by: B. Koucky

Set I            59:23
01. Tuning
02. Hell In A Bucket >
03. Sugaree
04. Tons Of Steel
05. Ramble On Rose
06. Me And My Uncle >
07. Mexicali Blues
08. Althea
09. Feel Like A Stranger
10. Might As Well

Set II           94:37
01. Scarlet Begonias >
02. Fire On The Mountain
03. Playing In The Band >
04. Terrapin Station >
05. Drums >
06. Space >
07. Truckin' >
08. Wharf Rat >
09. Throwing Stones >
10. Not Fade Away
11. NFA chant
Encore:
01. The Mighty Quinn (Quinn The Eskimo)

Patch Info:
- Patches used for tuning before Hell In A Bucket, and the Throwing Stones > NFA tape flip.
- Patch Source supplied by Dave Minches [FOB AUD Unknown taper/mics > PCM > DAT > FLAC]

Notes:
- Crossfades were applied between some first set tunes and tape flips.


SHNTOOL OUTPUT:
    length     expanded size   cdr  WAVE problems filename
     1:59.933      69081644    cxx   --   ---xx   gd1987-06-14.motb.0017.s1t01.flac
     5:47.733     200294444    cxx   --   ---xx   gd1987-06-14.motb.0017.s1t02.flac
    10:42.262     369943226    cxx   --   ---xx   gd1987-06-14.motb.0017.s1t03.flac
     6:06.867     211315244    cxx   --   ---xx   gd1987-06-14.motb.0017.s1t04.flac
     6:45.667     233664044    cxx   --   ---xx   gd1987-06-14.motb.0017.s1t05.flac
     3:11.187     110123564    cxx   --   ---xx   gd1987-06-14.motb.0017.s1t06.flac
     5:03.293     174697004    cxx   --   ---xx   gd1987-06-14.motb.0017.s1t07.flac
     7:12.333     249024044    cxx   --   ---xx   gd1987-06-14.motb.0017.s1t08.flac
     8:04.187     278891564    cxx   --   ---xx   gd1987-06-14.motb.0017.s1t09.flac
     4:29.636     155310242    cxx   --   ---xx   gd1987-06-14.motb.0017.s1t10.flac
     7:59.733     276326444    cxx   --   ---xx   gd1987-06-14.motb.0017.s2t01.flac
     9:58.320     344632364    cxx   --   ---xx   gd1987-06-14.motb.0017.s2t02.flac
     9:39.227     333634604    cxx   --   ---xx   gd1987-06-14.motb.0017.s2t03.flac
    10:51.600     375321644    cxx   --   ---xx   gd1987-06-14.motb.0017.s2t04.flac
     9:01.122     311686100    cxx   --   ---xx   gd1987-06-14.motb.0017.s2t05.flac
    12:38.747     437038124    cxx   --   ---xx   gd1987-06-14.motb.0017.s2t06.flac
     7:40.613     265313324    cxx   --   ---xx   gd1987-06-14.motb.0017.s2t07.flac
     8:20.747     288430124    cxx   --   ---xx   gd1987-06-14.motb.0017.s2t08.flac
     8:43.107     301309484    cxx   --   ---xx   gd1987-06-14.motb.0017.s2t09.flac
     7:41.893     266050604    cxx   --   ---xx   gd1987-06-14.motb.0017.s2t10.flac
     2:02.507      70563884    cxx   --   ---xx   gd1987-06-14.motb.0017.s2t11.flac
     4:19.782     149634350    cxx   --   ---xx   gd1987-06-14.motb.0017.sEt01.flac
   158:20.495    5472286070 B                     (totals for 22 files, 1.0002 overall compression ratio)

Show Checksums
ffp
gd1987-06-14.motb.0017.s1t01.flac:1b792cbe7b07ec648811e0c9c2c202cc
gd1987-06-14.motb.0017.s1t02.flac:857c7aa4006ad0acfb7103a88a9ec6e7
gd1987-06-14.motb.0017.s1t03.flac:0fbbdca623037db5809148f5f5934a94
gd1987-06-14.motb.0017.s1t04.flac:c197111cfc633947bd60da156ba22a77
gd1987-06-14.motb.0017.s1t05.flac:71b2ffc25712ee8284c341f8b3b1d017
gd1987-06-14.motb.0017.s1t06.flac:41fe99ee812b0b1a11ec4e39e7b7c54d
gd1987-06-14.motb.0017.s1t07.flac:210ed597982e21660df4fd9f4fc16550
gd1987-06-14.motb.0017.s1t08.flac:884afab3ef1107d4a303b60da230789d
gd1987-06-14.motb.0017.s1t09.flac:bec86b801520478ae0a85d9daaf31f79
gd1987-06-14.motb.0017.s1t10.flac:a0aa32a1561e2cd56c486bc7c33cfd54
gd1987-06-14.motb.0017.s2t01.flac:08da1c809055cfcba8bd7cf3856df7e0
gd1987-06-14.motb.0017.s2t02.flac:7b6a367e56cb47c717c7377cb205d0ad
gd1987-06-14.motb.0017.s2t03.flac:eaf4b819bc9ff1e2c597ffbfdd876595
gd1987-06-14.motb.0017.s2t04.flac:7168cb8bf6c80b208940be4c000f9b98
gd1987-06-14.motb.0017.s2t05.flac:5ec36053d711ce7ea7fe323b48f32b44
gd1987-06-14.motb.0017.s2t06.flac:0b69cc6235b6d771f8d4d0e6602ca8d5
gd1987-06-14.motb.0017.s2t07.flac:07458a3a467fe09bb15bf384457845d6
gd1987-06-14.motb.0017.s2t08.flac:1074626e31c04eaac849af67127353f4
gd1987-06-14.motb.0017.s2t09.flac:f2be728151c543b0ef14b0b88cae410e
gd1987-06-14.motb.0017.s2t10.flac:707032242f0b91214642c26b6012ab92
gd1987-06-14.motb.0017.s2t11.flac:eab7940a0526543e15b58c5da1276318
gd1987-06-14.motb.0017.sEt01.flac:f1195a16d705284314071d9f50216d64
flac-md5
90fc68a7971b511e8df045d134f5c42e *gd1987-06-14.motb.0017.s1t01.flac
061f45f05886b814f32d5fcdef9f99be *gd1987-06-14.motb.0017.s1t02.flac
c66b7b7cf102b20c608b61dcd3311148 *gd1987-06-14.motb.0017.s1t03.flac
38abfaec77b70e287f79668df07a02e9 *gd1987-06-14.motb.0017.s1t04.flac
5dfa4208edc45623b3924023fc23c393 *gd1987-06-14.motb.0017.s1t05.flac
62074b7e3bdaa66bb6c1583097bfef73 *gd1987-06-14.motb.0017.s1t06.flac
3beda3ce0495b99c8531f48391250916 *gd1987-06-14.motb.0017.s1t07.flac
974b2d2950ef14aeab8e80947c808a85 *gd1987-06-14.motb.0017.s1t08.flac
952341bde824be72c5d52014ab91c9bb *gd1987-06-14.motb.0017.s1t09.flac
6a72237aedb04cc1049aedf9e6577dbb *gd1987-06-14.motb.0017.s1t10.flac
f12275654b1ec8c07f23cb60c5d66ddb *gd1987-06-14.motb.0017.s2t01.flac
6e240072634a8e6f9c1bdbe9e0d7bbbc *gd1987-06-14.motb.0017.s2t02.flac
d597448dda8ab569d997f878b0d30d97 *gd1987-06-14.motb.0017.s2t03.flac
c24560c462a9f5534ca633bae9be99bf *gd1987-06-14.motb.0017.s2t04.flac
95d7f68dcea7fa6cba0520f41f5b3f22 *gd1987-06-14.motb.0017.s2t05.flac
610039721d34a1ad0e055642c013b8b3 *gd1987-06-14.motb.0017.s2t06.flac
3bc4e9851bb08567df1478a2dc9d659b *gd1987-06-14.motb.0017.s2t07.flac
08c3a767bc78de575f9a48d3f5c31a77 *gd1987-06-14.motb.0017.s2t08.flac
4f728ee54c5af4d7de2638c26149e83d *gd1987-06-14.motb.0017.s2t09.flac
021564a9a2b6321aab0ba5313362aa6c *gd1987-06-14.motb.0017.s2t10.flac
88ba8a2313bf2689e4be176a02a1cb71 *gd1987-06-14.motb.0017.s2t11.flac
1cfc20561ff961e9b920a55b18a1e939 *gd1987-06-14.motb.0017.sEt01.flac

Comments
Add Comment
Other Sources (comments)
Master Soundboard Cassette... (0) Matrix SBD>CASS>DAT>CD; via... (1) flac16; Seamless fix... (1) flac16; SRC: MAC (2... (0) flac24; SRC: MAC (2... (0) flac16; Recording... (0) flac16; Source:... (0) flac24;... (0)
Date User Comment