Browse Collections Artists Sources   Search Dates

Add Show    List Management    Help


Grateful Dead 09/24/91
Boston Garden, Boston, MA
Comments Add Comment    Source Collectors    Add to Collection    Add to Want List    History
Source # 84983 Other Sources
Entered by Matt Vernon
Checksums ffp , flac-md5
Disc Counts 2 / 0
Media Size
Date Circulated
Date Added
05/10/2007
05/10/2007
Source Summary flac16/48; AUD Source: Schoeps CMC3/MK4 (ORTF) > unknown power supply > Panasonic SV-255 (lead deck) > Coax SPDIF > Casio DA-7 Dat (first deck out) > Agfa Dat tape. Mics on 7-foot stand secured to hockey-wall at end of floor, behind lighting board, in the center. Transfer: MAD > Sony TCD-D10P > Coax SPDIF > Audiophile 2496 > Soundforge (at 48kHz) > CD-Wave > TLH > FLAC. Taped and transferred by Andrew F. 
  Archive
Source Information - Download Text | Download Zip
GRATEFUL DEAD
Boston Garden
Boston MA
09-24-1991

NOTE: This is the 48kHz file-set for archiving. These files cannot be
burned to CDR. To make audio CDs, get the 44.1kHz file-set. Please do
not downsample and recirculate these files for CDR...

Set One (71:02)

s1t01 crowd & tuning
s1t02 Let the Good Times Roll
s1t03 Feel Like a Stranger
s1t04 Althea
s1t05 It's All Over Now
s1t06 High Time
s1t07 Beat it on Down the Line >
s1t08 Big Railroad Blues
s1t09 Desolation Row
s1t10 New Speedway Boogie

Set Two (101:24)

s2t01 crowd & tuning
s2t02 China Cat Sunflower >
s2t03 I Know You Rider
s2t04 Women Are Smarter
s2t05 Ship of Fools
s2t06 Dark Star >
s2t07 Drums >
s2t08 Space >
s2t09 Foolish Heart >
s2t10 I Need a Miracle >
s2t11 Standing on the Moon >
s2t12 Around & Around
-- encore --
s2t13 crowd & tuning
s2t14 The Weight

AUD Source: Schoeps CMC3/MK4 (ORTF) > unknown power supply > Panasonic SV-255 (lead deck) > Coax SPDIF > Casio DA-7 Dat (first deck out) > Agfa Dat tape. Mics on 7-foot stand secured to hockey-wall at end of floor, behind lighting board, in the center.

Transfer: MAD > Sony TCD-D10P > Coax SPDIF > Audiophile 2496 > Soundforge (at 48kHz) > CD-Wave > TLH > FLAC. Taped and transferred by Andrew F.

Notes:
- Soundforge used to make fades.
- TLH used for FLAC compression and making checksums.


shntool

    length     expanded size   cdr  WAVE problems filename
     1:55.840      22241324    cxx   --   ---xx   gd1991-09-24s1t01.flac
     4:18.440      49620524    cxx   --   ---xx   gd1991-09-24s1t02.flac
     8:27.680      97474604    cxx   --   ---xx   gd1991-09-24s1t03.flac
     8:40.707      99975724    cxx   --   ---xx   gd1991-09-24s1t04.flac
     8:11.333      94336044    cxx   --   ---xx   gd1991-09-24s1t05.flac
     8:53.013     102338604    cxx   --   ---xx   gd1991-09-24s1t06.flac
     3:07.467      35993644    cxx   --   ---xx   gd1991-09-24s1t07.flac
     5:37.427      64785964    cxx   --   ---xx   gd1991-09-24s1t08.flac
    13:18.853     153379884    cxx   --   ---xx   gd1991-09-24s1t09.flac
     8:31.890      98282888    cxx   --   ---xx   gd1991-09-24s1t10.flac
     1:07.307      12922924    cxx   --   ---xx   gd1991-09-24s2t01.flac
     7:30.880      86569004    cxx   --   ---xx   gd1991-09-24s2t02.flac
     6:00.747      69263404    cxx   --   ---xx   gd1991-09-24s2t03.flac
     8:56.000     102912044    cxx   --   ---xx   gd1991-09-24s2t04.flac
     8:17.000      95424044    cxx   --   ---xx   gd1991-09-24s2t05.flac
    14:40.347     169026604    cxx   --   ---xx   gd1991-09-24s2t06.flac
     6:15.933      72179244    cxx   --   ---xx   gd1991-09-24s2t07.flac
     9:53.720     113994284    cxx   --   ---xx   gd1991-09-24s2t08.flac
     9:31.787     109783084    cxx   --   ---xx   gd1991-09-24s2t09.flac
     4:13.880      48745004    cxx   --   ---xx   gd1991-09-24s2t10.flac
    10:15.960     118264364    cxx   --   ---xx   gd1991-09-24s2t11.flac
     7:41.067      88524844    cxx   --   ---xx   gd1991-09-24s2t12.flac
     0:53.200      10214444    cxx   --   ---xx   gd1991-09-24s2t13.flac
     6:06.634      70393740    cxx   --   ---xx   gd1991-09-24s2t14.flac
   172:27.110    1986646236 B                     (totals for 24 files, 0.4993 overall compression ratio)

There were no sector boundary errors.
Show Checksums
ffp
gd1991-09-24s1t01.flac:cb98e59aa23beb3d929e001ae767f31a
gd1991-09-24s1t02.flac:cff8288a661ec4bbc4bc1ff815fb6876
gd1991-09-24s1t03.flac:f9259e2eb4f3145845bdbacf09e241fa
gd1991-09-24s1t04.flac:ad21bc8afa5565e67ab607e915e5a77d
gd1991-09-24s1t05.flac:4cead7ed9f78cfa1e594501df15ac923
gd1991-09-24s1t06.flac:0c36fb8695dd6efc836fae39072e3356
gd1991-09-24s1t07.flac:d68e3171b846e0f55752db821019d289
gd1991-09-24s1t08.flac:24a28ed5ad72d152052eb8740b78d029
gd1991-09-24s1t09.flac:e83b115942d93a873eb7f38142de36b0
gd1991-09-24s1t10.flac:f827f678c848f836056f31d0bb4cca8f
gd1991-09-24s2t01.flac:6acc56e2f2c5ee1b65ebd2509e4857d0
gd1991-09-24s2t02.flac:0e8bf13d0b50583922c7d6c724083597
gd1991-09-24s2t03.flac:54283442b8d25e143266fffac68dd257
gd1991-09-24s2t04.flac:689a710a0a7db565ca584069818893e9
gd1991-09-24s2t05.flac:eb60b9a0cfa6b27914be0bf7745ce993
gd1991-09-24s2t06.flac:d9a7de6a4c34de1bb0ab8b92d03f025e
gd1991-09-24s2t07.flac:4c05b0f626ea714cedd6bc4895d8b29d
gd1991-09-24s2t08.flac:b0630a5e90d56661cac25f016abf1f97
gd1991-09-24s2t09.flac:11c79423d293adc4c6b2095658e980a4
gd1991-09-24s2t10.flac:b7c9882505978db97bb622ed13278b55
gd1991-09-24s2t11.flac:fdf3dcd2d3fdad445f7fea65cd5ccc80
gd1991-09-24s2t12.flac:fbcbd24b796b31a7a7d3fe445ebd40dd
gd1991-09-24s2t13.flac:8d4e67fd25cfe162b13808d938e49aed
gd1991-09-24s2t14.flac:db5ddcde7b3b44a2965b6cbacc5e18a7
flac-md5
3fd3db9d032f8e730d36905d473f7b2f *gd1991-09-24s1t01.flac
1bd6c3af6a9aeb6016c84d0ba30ab013 *gd1991-09-24s1t02.flac
3e4705f9af238ea1a1af03bb2f61d0df *gd1991-09-24s1t03.flac
3ff448729b496e15628ebf32f6d97cf0 *gd1991-09-24s1t04.flac
af4edd16009be3c479dfdc5f9dcac02f *gd1991-09-24s1t05.flac
a529ca5f13d6ad20393f3f4110c4229c *gd1991-09-24s1t06.flac
57f7672a0c54bb81402251d9233f0c95 *gd1991-09-24s1t07.flac
2f3b6fb84a924bc5e8b681a293582c30 *gd1991-09-24s1t08.flac
56bcef85b6b7fa972d2513f8985c4431 *gd1991-09-24s1t09.flac
b7fb847da9f88d8e6234f8c3a6d378f4 *gd1991-09-24s1t10.flac
612cc78ae5649e46a390fdfee4f627a9 *gd1991-09-24s2t01.flac
6fc248ae521cfa047c7d091f90f593d1 *gd1991-09-24s2t02.flac
c87a339d20e959299ea0cea67e080642 *gd1991-09-24s2t03.flac
9d23d1abfff0fac370e45ed11ace397c *gd1991-09-24s2t04.flac
aa401a74bd07b0b209e8b016a6e7236c *gd1991-09-24s2t05.flac
37731b3fdb8061ea44bf5ca85a55e4b7 *gd1991-09-24s2t06.flac
bf8e5dfc51e388e13c434690311980e4 *gd1991-09-24s2t07.flac
db454d6f28132fb64efa83c423022d9b *gd1991-09-24s2t08.flac
f8c058adc6783c435800c1cd05837aec *gd1991-09-24s2t09.flac
289d1ce673f170a81d75366cd1aac49b *gd1991-09-24s2t10.flac
6239f49d40a4200638029fb8200f38e1 *gd1991-09-24s2t11.flac
2e325d66c7393eb472545a8dff89c52f *gd1991-09-24s2t12.flac
4447346c2b907b08776ad532ff86cafc *gd1991-09-24s2t13.flac
7c23cf5e3cf485402102d19e715e1ba3 *gd1991-09-24s2t14.flac

Comments
Add Comment
Other Sources (comments)
SBD > MC > DAT > CDR; vtree... (0) updated lineage: SBD > ?... (5) SBD> Dat x 3; Transfer: Dat... (0) Refix of Jay Serafin seed... (0) flac16; SBD -> Dat x... (1) flac16; AUD Source:... (0) flac24; Set 2... (0) flac16; Lineage:... (0) flac24; Master... (0) flac16; Master... (0) flac16; 2 Source... (0) flac16; DSBD... (0) flac16/48kHz;... (0)
Date User Comment