Browse Collections Artists Sources   Search Dates

Add Show    List Management    Help


Gov't Mule 04/11/96
Georgia Theater, Athens, GA
Comments Add Comment    Source Collectors    Add to Collection    Add to Want List    History
Source # 84984 Other Sources
Entered by
Checksums ffp
Disc Counts 2 / 2
Media Size
Date Circulated
Date Added
05/09/2007
05/10/2007
Source Summary DSBD [email protected] / Tascam DA-20> BehringerDEQ24/96 Ultracurve pro> Lexicon 480> ART212 Dual Compressor> Furman Limiter Compresor> Gatex Noise Gate> Furman Pro Conditioner> Wavelab> CDWave(track)> TLH(sbe)> Flac(level 8) By: Michael Wilker 
Source Information - Download Text | Download Zip
Gov't Mule
Georgia Theater
Athens, GA.
4/11/1996


************SBD************



Mastered, Tracked, & Seeded By:
Michael Wilker  mwilker-at-comcast.net
Source: DSBD [email protected]
Received from: Bob Dworetz
Transfer: Tascam DA-20~>
BehringerDEQ24/96 Ultracurve pro~>
Lexicon 480~> ART212 Dual COmpressor~>
Furman Limiter Compresor~> Gatex Noise Gate~>
Furman Pro Conditioner~> Wavelab~>
CDWave(track)~> TLH(sbe)~> Flac(level 8)
************************************************

ONE SET/DISC ONE:
01. Pygmy Twylyte
02. Blind Man In The Dark
03. Mother Earth
04. John The Revalator
05. Temporary Saint
06. Game Face
07. No Need To Suffer
08. Trane
09. Eternity's Breath Jam
10. Thelonius Beck
11. St. Stephen Jam
12. I Shall Be Released Tease
13. Don't Step On The Grass, Sam

DISC TWO:
01. Presence Of The Lord
02. Birth Of The Mule
03. Left Coast Groovies
04. Drums
05. Mule
06. Who Do You Love?
07. Mule

ENCORE:
08. Goin' Out West
09. Spanish Moon*
10. Gonna Send You Back To Georgia*

*w/ Derek Trucks on guitar

SHNTOOL:
length     expanded size   cdr  WAVE problems filename
     2:15.12       23842268    ---   --   -----   gm1996-04-11d1t01.wav
     6:52.52       72799148    ---   --   -----   gm1996-04-11d1t02.wav
     8:00.66       84827276    ---   --   -----   gm1996-04-11d1t03.wav
     1:39.74       17637692    ---   --   -----   gm1996-04-11d1t04.wav
     6:11.48       65557340    ---   --   -----   gm1996-04-11d1t05.wav
     6:20.35       67114364    ---   --   -----   gm1996-04-11d1t06.wav
     8:09.33       86337260    ---   --   -----   gm1996-04-11d1t07.wav
     7:14.43       76658780    ---   --   -----   gm1996-04-11d1t08.wav
     2:01.12       21372668    ---   --   -----   gm1996-04-11d1t09.wav
     4:08.15       43782524    ---   --   -----   gm1996-04-11d1t10.wav
     5:50.15       61775324    ---   --   -----   gm1996-04-11d1t11.wav
     2:47.40       29552924    ---   --   -----   gm1996-04-11d1t12.wav
     8:12.05       86800604    ---   --   -----   gm1996-04-11d1t13.wav
     6:31.65       69125324    ---   --   -----   gm1996-04-11d2t01.wav
     6:18.42       66778028    ---   --   -----   gm1996-04-11d2t02.wav
     6:21.00       67208444    ---   --   -----   gm1996-04-11d2t03.wav
     6:36.54       69981452    ---   --   -----   gm1996-04-11d2t04.wav
     4:47.15       50662124    ---   --   -----   gm1996-04-11d2t05.wav
     1:40.63       17788220    ---   --   -----   gm1996-04-11d2t06.wav
     2:57.02       31227548    ---   --   -----   gm1996-04-11d2t07.wav
     6:09.10       65115164    ---   --   -----   gm1996-04-11d2t08.wav
    12:21.61      130855916    ---   --   -----   gm1996-04-11d2t09.wav
     7:19.61       77583116    ---   --   -----   gm1996-04-11d2t10.wav
   130:47.73     1384383508 B                     (totals for 23 files, 1.0000 overall compression ratio)

FINGERPRINT:
gm1996-04-11d1t01.flac:cfbd3e227376e95d6353583f36986c45
gm1996-04-11d1t02.flac:4972f921d0d572bce338f920f1d5f92e
gm1996-04-11d1t03.flac:15592e08ca0f5ba3cb2a71ac36c6bc6b
gm1996-04-11d1t04.flac:6003d27fea11a4e056502b335133cda7
gm1996-04-11d1t05.flac:923867add673be1c4591f2a680f6c5f0
gm1996-04-11d1t06.flac:fb173269932116cb4fd5a053b9da22cb
gm1996-04-11d1t07.flac:3ba9ac714ccbbbe7955fb969f8616abe
gm1996-04-11d1t08.flac:8bfe473a77de8d411dbe3ea2a45ed8e4
gm1996-04-11d1t09.flac:ae479e11130bd9340bbbe0763e02e576
gm1996-04-11d1t10.flac:735795f2838adfc48a3bf683ac9ae407
gm1996-04-11d1t11.flac:d516c49754cd67455c0aed62bf87fa27
gm1996-04-11d1t12.flac:fc6e4fc4ee57c99fff98e2931aadcee2
gm1996-04-11d1t13.flac:b7828affe3de3ad305975b30bf32ac21
gm1996-04-11d2t01.flac:ea61a66cd0a20d0c5c7043757dab9a98
gm1996-04-11d2t02.flac:991d7abe4589de6d5b2c28f8ae149b58
gm1996-04-11d2t03.flac:1768b0174ef46b9d02ed5ed93150dafd
gm1996-04-11d2t04.flac:cfd0e068cbd7b872ff7cd9afd625199f
gm1996-04-11d2t05.flac:695e8cfc226bbc7013e9a2f10f13fce8
gm1996-04-11d2t06.flac:0a8ce06cad88a578d1a0cbce95e9c9cf
gm1996-04-11d2t07.flac:80a61a259ccd0c6fb4224caf3351fa1e
gm1996-04-11d2t08.flac:04d410c389fd19548f781c958f9cdab5
gm1996-04-11d2t09.flac:721c6be1b0047457685c7ab8c8a012c0
gm1996-04-11d2t10.flac:655c9188b19611f576f7b0ace7fb527e

-->> Support artists that support tapers! <<--


Show Checksums
ffp
gm1996-04-11d1t01.flac:cfbd3e227376e95d6353583f36986c45
gm1996-04-11d1t02.flac:4972f921d0d572bce338f920f1d5f92e
gm1996-04-11d1t03.flac:15592e08ca0f5ba3cb2a71ac36c6bc6b
gm1996-04-11d1t04.flac:6003d27fea11a4e056502b335133cda7
gm1996-04-11d1t05.flac:923867add673be1c4591f2a680f6c5f0
gm1996-04-11d1t06.flac:fb173269932116cb4fd5a053b9da22cb
gm1996-04-11d1t07.flac:3ba9ac714ccbbbe7955fb969f8616abe
gm1996-04-11d1t08.flac:8bfe473a77de8d411dbe3ea2a45ed8e4
gm1996-04-11d1t09.flac:ae479e11130bd9340bbbe0763e02e576
gm1996-04-11d1t10.flac:735795f2838adfc48a3bf683ac9ae407
gm1996-04-11d1t11.flac:d516c49754cd67455c0aed62bf87fa27
gm1996-04-11d1t12.flac:fc6e4fc4ee57c99fff98e2931aadcee2
gm1996-04-11d1t13.flac:b7828affe3de3ad305975b30bf32ac21
gm1996-04-11d2t01.flac:ea61a66cd0a20d0c5c7043757dab9a98
gm1996-04-11d2t02.flac:991d7abe4589de6d5b2c28f8ae149b58
gm1996-04-11d2t03.flac:1768b0174ef46b9d02ed5ed93150dafd
gm1996-04-11d2t04.flac:cfd0e068cbd7b872ff7cd9afd625199f
gm1996-04-11d2t05.flac:695e8cfc226bbc7013e9a2f10f13fce8
gm1996-04-11d2t06.flac:0a8ce06cad88a578d1a0cbce95e9c9cf
gm1996-04-11d2t07.flac:80a61a259ccd0c6fb4224caf3351fa1e
gm1996-04-11d2t08.flac:04d410c389fd19548f781c958f9cdab5
gm1996-04-11d2t09.flac:721c6be1b0047457685c7ab8c8a012c0
gm1996-04-11d2t10.flac:655c9188b19611f576f7b0ace7fb527e

Comments
Add Comment
Date User Comment