Browse Collections Artists Sources   Search Dates

Add Show    List Management    Help


Gov't Mule 04/12/96
The Roxy, Atlanta, GA
Comments Add Comment    Source Collectors    Add to Collection    Add to Want List    History
Source # 85001 Other Sources
Entered by
Checksums flac.ffp
Disc Counts 2 / 2
Media Size
Date Circulated
Date Added
05/10/2007
05/11/2007
Source Summary Source: AKG 480/ck1's> m148> AD1k> D-10proII @48k
Transfer:(datmaster)DA-20~> Audiophile24/96~> WaveLab5(fadeI/O)~> CDWave(track)~> TLH~> FLAC8
Mastered, Tracked, & Seeded By: Michael Wilker 
Source Information - Download Text | Download Zip
Gov't Mule
The Roxy
Atlanta, GA.
4/12/1996



SOURCE: AKG 480/ck1's> m148> AD1k> D-10proII @48k
TAPER: Bob Dworetz
Mastered, Tracked, & Seeded By:
Michael Wilker  mwilker-at-comcast.net
Transfer:(datmaster)DA-20~> Audiophile24/96~>
  WaveLab5(fadeI/O)~> CDWave(track)~> TLH~> FLAC8
**************************************************

ONE SET/DISC ONE:
01. Pygmy Twylyte
02. Blind Man In The Dark
03. Mother Earth
04. Mule
05. Temporary Saint
06. Game Face
07. No Need To Suffer
08. Trane
09. Third Stone Jam
10. Trane
11. Eternity's Breath Jam
12. Thelonius Beck
13. St. Stephen Jam
14. I Shall Be Released Tease
15. Painted Silver Light
16. Don't Step On The Grass, Sam

DISC TWO:
01. Birth Of The Mule
02. Just Got Paid
ENCORE:
03. Goin' Out West
04. The Same Thing
05. Gonna Send You Back To Georgia*
06. Young Man Blues*
07. Good Morning Little Schoolgirl*
08. Young Man Blues*

*w/ Derek Trucks on guitar

SHNTOOL:
length     expanded size   cdr  WAVE problems filename
     2:10.72       23101388    ---   --   -----   gm1996-04-12d1t01.wav
     6:47.58       71931260    ---   --   -----   gm1996-04-12d1t02.wav
     8:30.14       89996972    ---   --   -----   gm1996-04-12d1t03.wav
     5:53.61       62412716    ---   --   -----   gm1996-04-12d1t04.wav
     6:15.50       66267644    ---   --   -----   gm1996-04-12d1t05.wav
     6:34.45       69607484    ---   --   -----   gm1996-04-12d1t06.wav
     8:11.34       86692412    ---   --   -----   gm1996-04-12d1t07.wav
     5:08.36       54415916    ---   --   -----   gm1996-04-12d1t08.wav
     1:14.58       13190060    ---   --   -----   gm1996-04-12d1t09.wav
     0:28.58        5075660    ---   --   -----   gm1996-04-12d1t10.wav
     2:02.06       21534956    ---   --   -----   gm1996-04-12d1t11.wav
     3:56.60       41771564    ---   --   -----   gm1996-04-12d1t12.wav
     6:05.73       64557740    ---   --   -----   gm1996-04-12d1t13.wav
     1:46.71       18865436    ---   --   -----   gm1996-04-12d1t14.wav
     7:19.32       77514908    ---   --   -----   gm1996-04-12d1t15.wav
     7:24.71       78488636    ---   --   -----   gm1996-04-12d1t16.wav
     5:59.39       63419372    ---   --   -----   gm1996-04-12d2t01.wav
     7:19.22       77491388    ---   --   -----   gm1996-04-12d2t02.wav
     6:31.74       69146492    ---   --   -----   gm1996-04-12d2t03.wav
    10:19.49      109306892    ---   --   -----   gm1996-04-12d2t04.wav
     8:31.29       90208652    ---   --   -----   gm1996-04-12d2t05.wav
     2:35.35       27424364    ---   --   -----   gm1996-04-12d2t06.wav
     7:42.38       81586220    ---   --   -----   gm1996-04-12d2t07.wav
     1:32.01       16231196    ---   --   -----   gm1996-04-12d2t08.wav
   130:24.36     1380239328 B                     (totals for 24 files, 1.0000 overall compression ratio)

FINGERPRINT:
gm1996-04-12d1t01.flac:1e40ba7b0ce67fcd0b4873d8e158348c
gm1996-04-12d1t02.flac:b28275ed4000bb0a32a677c693dea480
gm1996-04-12d1t03.flac:feec1800243b3f56817d3dba2cd42189
gm1996-04-12d1t04.flac:f27c463a12f24f32bc9955a19a180031
gm1996-04-12d1t05.flac:1ab49f2ce020d0759f6b39d946b8fe4d
gm1996-04-12d1t06.flac:1d59f3e4984e1c240149b1562bd28d1e
gm1996-04-12d1t07.flac:df0da1ee8877a06629c248712b1572ca
gm1996-04-12d1t08.flac:e8761ed464aeae8f541ca84c4cf8bb4a
gm1996-04-12d1t09.flac:ba2c5c9f2e7a32f1768a63712079ee70
gm1996-04-12d1t10.flac:37318ed13a4e0a49e18124eea55b624e
gm1996-04-12d1t11.flac:f5d5e6ba093b7bbafcbdbbff585aded6
gm1996-04-12d1t12.flac:68fa688b791b972523418c2ffe137a7a
gm1996-04-12d1t13.flac:0dc1dace144b77156801805dd9a75316
gm1996-04-12d1t14.flac:249d4f055eae2072846f6ac51c0cf1be
gm1996-04-12d1t15.flac:01f982d25a430f75f410b0d0cc0803a3
gm1996-04-12d1t16.flac:17b552422575b16870fd1f392cff10f7
gm1996-04-12d2t01.flac:2d197d44ba8ecd28be6c07ec3df133d9
gm1996-04-12d2t02.flac:241612c5ece8ee2bcb43f8edee0a4b8e
gm1996-04-12d2t03.flac:53da8e8991209522db27c15e6cc6ac36
gm1996-04-12d2t04.flac:c1104e5d0f9d4257a94afe7ba2408626
gm1996-04-12d2t05.flac:38e8d4905654ccace97a1b4d1a65ca24
gm1996-04-12d2t06.flac:d98b811be1b1c1cec62b15511e333b0e
gm1996-04-12d2t07.flac:39bd220476787c806ce0a7cceca234f3
gm1996-04-12d2t08.flac:cb3a405de06b138a96d5688ab9800db1
-->> Support artists that support tapers! <<--
Show Checksums
flac.ffp
gm1996-04-12d1t01.flac:1e40ba7b0ce67fcd0b4873d8e158348c
gm1996-04-12d1t02.flac:b28275ed4000bb0a32a677c693dea480
gm1996-04-12d1t03.flac:feec1800243b3f56817d3dba2cd42189
gm1996-04-12d1t04.flac:f27c463a12f24f32bc9955a19a180031
gm1996-04-12d1t05.flac:1ab49f2ce020d0759f6b39d946b8fe4d
gm1996-04-12d1t06.flac:1d59f3e4984e1c240149b1562bd28d1e
gm1996-04-12d1t07.flac:df0da1ee8877a06629c248712b1572ca
gm1996-04-12d1t08.flac:e8761ed464aeae8f541ca84c4cf8bb4a
gm1996-04-12d1t09.flac:ba2c5c9f2e7a32f1768a63712079ee70
gm1996-04-12d1t10.flac:37318ed13a4e0a49e18124eea55b624e
gm1996-04-12d1t11.flac:f5d5e6ba093b7bbafcbdbbff585aded6
gm1996-04-12d1t12.flac:68fa688b791b972523418c2ffe137a7a
gm1996-04-12d1t13.flac:0dc1dace144b77156801805dd9a75316
gm1996-04-12d1t14.flac:249d4f055eae2072846f6ac51c0cf1be
gm1996-04-12d1t15.flac:01f982d25a430f75f410b0d0cc0803a3
gm1996-04-12d1t16.flac:17b552422575b16870fd1f392cff10f7
gm1996-04-12d2t01.flac:2d197d44ba8ecd28be6c07ec3df133d9
gm1996-04-12d2t02.flac:241612c5ece8ee2bcb43f8edee0a4b8e
gm1996-04-12d2t03.flac:53da8e8991209522db27c15e6cc6ac36
gm1996-04-12d2t04.flac:c1104e5d0f9d4257a94afe7ba2408626
gm1996-04-12d2t05.flac:38e8d4905654ccace97a1b4d1a65ca24
gm1996-04-12d2t06.flac:d98b811be1b1c1cec62b15511e333b0e
gm1996-04-12d2t07.flac:39bd220476787c806ce0a7cceca234f3
gm1996-04-12d2t08.flac:cb3a405de06b138a96d5688ab9800db1
-->> Support artists that support tapers! <<--

Comments
Add Comment
Other Sources (comments)
Oade Matrix > DAT clone... (0) SBD> DAT @48kHz Panasonic... (0)
Date User Comment