Browse Collections Artists Sources   Search Dates

Add Show    List Management    Help


Grateful Dead 03/16/90
Capital Centre, Landover, MD
Comments Add Comment    Source Collectors    Add to Collection    Add to Want List    History
Source # 85201 Other Sources
Entered by Gary Field
Checksums flac-md5 , ffp
Disc Counts 2 / 3
Media Size
Date Circulated
Date Added
05/19/2007
05/19/2007
Source Summary flac16; Recording Info: SBD -> Cassette Master -> Dat (44.1k) Transfer Info: Dat (Sony R500) -> Samplitude Professional v9.1.1 -> FLAC All Transfers and Mastering By Charlie Miller 
  Archive
Source Information - Download Text | Download Zip
Grateful Dead - March 16, 1990
Capital Centre - Landover, MD

Recording Info:
SBD -> Cassette Master -> Dat (44.1k)

Transfer Info:
Dat (Sony R500) -> Samplitude Professional v9.1.1 -> FLAC
(3 Discs Audio / 2 Discs FLAC)

All Transfers and Mastering By Charlie Miller
[email protected]
May 16, 2007

Patch Info:
Sennheiser 4xx -> Cassette Master -> Cassette -> Sound Forge -> WAV
Touch Of Grey (6:04 - 6:09)
The Last Time (0:00 - 0:03)

Notes:
-- 2nd Set disc change is seamless
-- Jam contains Eyes Of The World tease
-- Patch source was was off pitch, hard to correct perfectly
-- Thanks to Bob Abrams for the patch source
-- Patch Recorded by Jeff Hubbard, Transfered Charles Bandrofcheck

Set 1:
d1t01 - Let The Good Times Roll
d1t02 - Touch Of Grey
d1t03 - New Minglewood Blues
d1t04 - Peggy-O
d1t05 - Queen Jane Approximately
d1t06 - Loser
d1t07 - Black Throated Wind
d1t08 - Bird Song
d1t09 - Blow Away

Set 2:
d2t01 - Scarlet Begonias ->
d2t02 - Estimated Prophet ->
d2t03 - Ship Of Fools ->
d2t04 - Man Smart, Woman Smarter
d2t05 - Jam ->
d2t06 - Drums ->
d3t01 - Space ->
d3t02 - The Other One ->
d3t03 - Stella Blue ->
d3t04 - Sugar Magnolia

Encore:
d3t05 - The Last Time


SHNTOOL OUTPUT:
    length     expanded size   cdr  WAVE problems filename
     4:04.50       43159244    ---   --   -----   gd90-03-16d1t01.wav
     6:25.06       67928156    ---   --   -----   gd90-03-16d1t02.wav
     8:32.25       90375644    ---   --   -----   gd90-03-16d1t03.wav
     6:33.08       69344060    ---   --   -----   gd90-03-16d1t04.wav
     6:54.14       73062572    ---   --   -----   gd90-03-16d1t05.wav
     7:51.63       83232620    ---   --   -----   gd90-03-16d1t06.wav
     6:37.65       70183724    ---   --   -----   gd90-03-16d1t07.wav
    14:23.01      152235596    ---   --   -----   gd90-03-16d1t08.wav
    12:08.08      128438060    ---   --   -----   gd90-03-16d1t09.wav
    11:14.38      118983020    ---   --   -----   gd90-03-16d2t01.wav
    11:03.54      117080252    ---   --   -----   gd90-03-16d2t02.wav
     7:39.33       81045260    ---   --   -----   gd90-03-16d2t03.wav
     6:55.26       73267196    ---   --   -----   gd90-03-16d2t04.wav
     5:15.04       55575452    ---   --   -----   gd90-03-16d2t05.wav
     9:13.01       97551596    ---   --   -----   gd90-03-16d2t06.wav
     8:57.18       94769180    ---   --   -----   gd90-03-16d3t01.wav
     8:34.05       90681404    ---   --   -----   gd90-03-16d3t02.wav
     8:55.62       94519868    ---   --   -----   gd90-03-16d3t03.wav
     8:40.40       91822124    ---   --   -----   gd90-03-16d3t04.wav
     5:32.30       58635404    ---   --   -----   gd90-03-16d3t05.wav
   165:31.26     1751890432 B                     (totals for 20 files)
Show Checksums
flac-md5
0148fe1fb63f32b28be6220c454ab0e2 *gd90-03-16d1t01.flac
8a7834ef13ac8a0a0eb87f505f5fa75c *gd90-03-16d1t02.flac
ca8f9660c80b2525d5bf28906d41b7fb *gd90-03-16d1t03.flac
2eda710e33f7471d29544089e543233d *gd90-03-16d1t04.flac
e1ecc779a655f47708fca4d3bf949e47 *gd90-03-16d1t05.flac
2da96d7946b1f01b66759cbb2cc06a5b *gd90-03-16d1t06.flac
438339ca296a399d05a4896757dad5cd *gd90-03-16d1t07.flac
81ff3e72e185f95a658b0edee4e94754 *gd90-03-16d1t08.flac
3a87b894ef40ae8d852e7b0dfdfe9c89 *gd90-03-16d1t09.flac
f0e1c37a1374eba3ad645cc8775694bb *gd90-03-16d2t01.flac
8a143d1d766e7e604a8a6fe89803934d *gd90-03-16d2t02.flac
939f2674db238a9365d4731dc2ff470e *gd90-03-16d2t03.flac
e9667e2f07595bcbce7ec9567b2c3785 *gd90-03-16d2t04.flac
bcecb87453ca839e5c95b65aa9fb5f7c *gd90-03-16d2t05.flac
cac31e2aebe30a909c13fa528822acc7 *gd90-03-16d2t06.flac
4acc91daa7ec0db11298c41a2b912a07 *gd90-03-16d3t01.flac
e0ed568d6111db88dbf498c4be315267 *gd90-03-16d3t02.flac
1467008fde31ac80d0f7b180e3bb6d46 *gd90-03-16d3t03.flac
a946d811d646b60b3d14ea0cd8ae793e *gd90-03-16d3t04.flac
38a12ac41a4832d2bf19f0ad30171bef *gd90-03-16d3t05.flac
ffp
gd90-03-16d1t01.flac:49d88f8476ffd258629f389922af0008
gd90-03-16d1t02.flac:d412da64700bc06d17a5e435d995b159
gd90-03-16d1t03.flac:d1db6a0389349f8f31c736743c6d677a
gd90-03-16d1t04.flac:7eb94711ad268b16be3b48925f017e37
gd90-03-16d1t05.flac:04ce7a56d5d36902f47fc4934120747e
gd90-03-16d1t06.flac:d6581cbc76216baa024b4b985343cb46
gd90-03-16d1t07.flac:8200cd1a628e0e18f57d928c17de3cde
gd90-03-16d1t08.flac:8d6d453e5e431d804223bedc6e764eee
gd90-03-16d1t09.flac:57e0c7b2241ce9538f48d09209d39277
gd90-03-16d2t01.flac:76a0b821d548cf4202dbd65db654e377
gd90-03-16d2t02.flac:aef214394f1881029a0d8330b7ee634c
gd90-03-16d2t03.flac:4b369756d318b055ca64ddee7bb61290
gd90-03-16d2t04.flac:931136d11093fd8d40c90e9ec3bcb13e
gd90-03-16d2t05.flac:26d1c89c5955b7eee81d9642675e015f
gd90-03-16d2t06.flac:2016b6978a4c13e5ea977c5a009317eb
gd90-03-16d3t01.flac:b15dcd8f27cf49d9ee44c70102ef2f31
gd90-03-16d3t02.flac:584726c51e4bcef65b300d07daec2c9a
gd90-03-16d3t03.flac:3011465b0e1c9d291d418630900f0fd2
gd90-03-16d3t04.flac:80ce4cc76c6e9f06511446c216c7252f
gd90-03-16d3t05.flac:ea0adb15f80503064af8ce3432173edb

Comments
Add Comment
Other Sources (comments)
sbd > ? > cdr > eac > shn;... (4) flac16; Aud MC > CDR... (0) flac16; Seamless and... (6) flac16; Sennheiser... (3) flac16; Unknown... (0) flac16; matrix of... (3) flac16; matrix of... (0) flac16; Source:... (0) flac24; Master... (0) flac16; Master... (0) flac16; Matrix 2... (0) DTS-Audio-CD 5.1... (0) flac16/48kHz; Rick... (0) flac16/48kHz; Rick... (0) flac24; Recording... (0) flac16; Recording... (0) flac16/48kHz; Ted... (0)
Date User Comment