Browse Collections Artists Sources   Search Dates

Add Show    List Management    Help


Grateful Dead 04/06/89
Crisler Arena, Ann Arbor, MI
Comments Add Comment    Source Collectors    Add to Collection    Add to Want List    History
Source # 85256 Other Sources
Entered by Matt Vernon
Checksums ffp , flac-md5
Disc Counts 2 / 3
Media Size
Date Circulated
Date Added
05/21/2007
05/22/2007
Source Summary flac16; matrix sources: 1) SBD -> Cassette Master (TDK MA-XG90) transfer : Cassette Master (Tascam 122mkII) -> Apogee MiniMe (24bit/48k) -> Samplitude Professional v8.01 -> FLAC/16 and 2) aud > Nak 300 shotguns > WMD-6 > mac taped by John Bleich transfer : mac > AIWA HX PRO AD-F410 > Creative Extigy > Wavelab > wav > flac transfered at 24/48, downsampled to 16/44.1 and dithered with iZotope Ozone except for Brokedown which is is from B&K 4011 source 
  Archive
Source Information - Download Text | Download Zip
Grateful Dead
Chrysler Arena
University Of Michigan
Ann Arbor, MI
04/06/89


matrix sources:

1) SBD -> Cassette Master (TDK MA-XG90)

transfer : Cassette Master (Tascam 122mkII) -> Apogee MiniMe (24bit/48k) ->
Samplitude Professional v8.01 -> FLAC/16

2) aud > Nak 300 shotguns > WMD-6 > mac
taped by John Bleich

transfer : mac > AIWA HX PRO AD-F410 > Creative Extigy > Wavelab > wav > flac
transfered at 24/48, downsampled to 16/44.1 and dithered with iZotope Ozone

except for Brokedown which is is from B&K 4011 source  


Disc 1
set I

01   tuning
02   Touch Of Gray
03   Little Red Rooster
04   tuning
05   Brown Eyed Women
06   tuning
07   Mama Tried >
08   Mexicali Blues
09   tuning
10   Althea
11   When I Paint My Masterpiece
12   tuning
13   Bird Song >
14   The Promised Land

Disc 2
set II

01   tuning
02   Scarlet Begonias >
03   Fire On The Mountain
04   tuning
05   Playing In The Band >
06   Built To Last >
07   Drums >

Disc 3
set II cont'd

01   Space >
02   I Will Take You Home >
03   The Other One >
04   Wharf Rat >
05   Around and Around >
06   Playing In The Band Reprise
07   crowd

encore:

08   Brokedown Palace


editing and mastering
SIRMick
May 2007


shntool output:

    length     expanded size   cdr  WAVE problems filename
     2:21.43       24973580    ---   --   ---xx   gd1989-04-06d1t01.flac
     6:15.43       66251180    ---   --   ---xx   gd1989-04-06d1t02.flac
     9:04.51       96081596    ---   --   ---xx   gd1989-04-06d1t03.flac
     1:47.70       19039484    ---   --   ---xx   gd1989-04-06d1t04.flac
     4:52.58       51645260    ---   --   ---xx   gd1989-04-06d1t05.flac
     1:02.59       11075612    ---   --   ---xx   gd1989-04-06d1t06.flac
     2:35.14       27374972    ---   --   ---xx   gd1989-04-06d1t07.flac
     4:45.03       50281100    ---   --   ---xx   gd1989-04-06d1t08.flac
     1:12.58       12837260    ---   --   ---xx   gd1989-04-06d1t09.flac
     6:59.71       74078636    ---   --   ---xx   gd1989-04-06d1t10.flac
     4:58.67       52724828    ---   --   ---xx   gd1989-04-06d1t11.flac
     1:19.40       14029724    ---   --   ---xx   gd1989-04-06d1t12.flac
    13:19.23      140997740    ---   --   ---xx   gd1989-04-06d1t13.flac
     4:36.34       48766412    ---   --   ---xx   gd1989-04-06d1t14.flac
     1:36.63       17082620    ---   --   ---xx   gd1989-04-06d2t01.flac
     9:30.13      100578620    ---   --   ---xx   gd1989-04-06d2t02.flac
    12:07.04      128252252    ---   --   ---xx   gd1989-04-06d2t03.flac
     1:38.57       17421308    ---   --   ---xx   gd1989-04-06d2t04.flac
    12:38.05      133723004    ---   --   ---xx   gd1989-04-06d2t05.flac
     7:33.49       80024492    ---   --   ---xx   gd1989-04-06d2t06.flac
    10:19.61      109335116    ---   --   ---xx   gd1989-04-06d2t07.flac
     6:46.70       71783084    ---   --   ---xx   gd1989-04-06d3t01.flac
     4:05.04       43227452    ---   --   ---xx   gd1989-04-06d3t02.flac
     7:46.58       82338860    ---   --   ---xx   gd1989-04-06d3t03.flac
     9:48.21      103772636    ---   --   ---xx   gd1989-04-06d3t04.flac
     4:01.02       42517148    ---   --   ---xx   gd1989-04-06d3t05.flac
     3:48.34       40299212    ---   --   ---xx   gd1989-04-06d3t06.flac
     1:33.63       16553420    ---   --   ---xx   gd1989-04-06d3t07.flac
     5:26.23       57560540    ---   --   ---xx   gd1989-04-06d3t08.flac
   163:53.36     1734627148 B                     (totals for 29 files, 0.5836 overall compression ratio)
Show Checksums
ffp
gd1989-04-06d1t01.flac:1aa709c0436d1c8fcda4dde8d46b9b6a
gd1989-04-06d1t02.flac:1bd053a67eaad99dccf175b4fceaf20c
gd1989-04-06d1t03.flac:47a048f68a8e308068fb5fc70369dc9e
gd1989-04-06d1t04.flac:6e6b7cdd9eb53f06aa042d42600f2cf3
gd1989-04-06d1t05.flac:53ecaecedb4f06cb3ff65d4b769cbf20
gd1989-04-06d1t06.flac:bd0852e20f307b5f32351ec92b5bf2d3
gd1989-04-06d1t07.flac:933f4272a3a638d659817d1b66255365
gd1989-04-06d1t08.flac:97424660993f1dd42656f096e4ff61c3
gd1989-04-06d1t09.flac:14df024c10fde97b5a71d38ce8fb97a0
gd1989-04-06d1t10.flac:441b41b9f2c68a415045ef749c46392e
gd1989-04-06d1t11.flac:dc8a1096e95e3dab06844abf73d35673
gd1989-04-06d1t12.flac:b52476542f1e3fe3fbca85a1f566dbab
gd1989-04-06d1t13.flac:e6edbd1b3bc7b6f76d14afc84fb2b1e8
gd1989-04-06d1t14.flac:b57d4e5e271090a3ad474f5ecf4201f8
gd1989-04-06d2t01.flac:31cebfdbff8cf9ec3b55e0696319d781
gd1989-04-06d2t02.flac:d949f734610512f765e7f5d1bb33cc90
gd1989-04-06d2t03.flac:84ce46f7b1e24556893bbbe18b5fa89f
gd1989-04-06d2t04.flac:8a6fbadf56568329378d2be14a1c738a
gd1989-04-06d2t05.flac:3da1dd7f5bcb539e1d157342d76d55b0
gd1989-04-06d2t06.flac:0791b99a944402ab0f0f4af8039addfa
gd1989-04-06d2t07.flac:b86accaad0816017cc3c486aa3cf89d7
gd1989-04-06d3t01.flac:c8f77ed6ac7f50491823224b418a791e
gd1989-04-06d3t02.flac:bc8a34b9692ceb57b425cc57b439ce9a
gd1989-04-06d3t03.flac:3c33ec42909463678a81a88a576412eb
gd1989-04-06d3t04.flac:d614dbe6a610765e57970036a14b5701
gd1989-04-06d3t05.flac:5f3c623e87bac668161dfffc74dd3310
gd1989-04-06d3t06.flac:746c6ab8020fca40da70f397f40e83d2
gd1989-04-06d3t07.flac:8705a081dc673e6c99a5841f2accf851
gd1989-04-06d3t08.flac:02d87975c43c0a1e8f40fb212fa70ef9
flac-md5
9ea50d3e96a684457fe85a9dfe5284da *gd1989-04-06d1t01.flac
c7b314c12b2effff48d6e4c6f0646d8c *gd1989-04-06d1t02.flac
079e6197e29627e548a9a094ee3e1d33 *gd1989-04-06d1t03.flac
f09d65b5dd7e6c4f2c64bb992b974346 *gd1989-04-06d1t04.flac
59ff074e19da389e7af89eb660ce5280 *gd1989-04-06d1t05.flac
c499782cca8e3bad66622ce90419f117 *gd1989-04-06d1t06.flac
0130248c390862d346d4e6dc5f6d16cc *gd1989-04-06d1t07.flac
07376ed90bcd4063ea071efb97b694ed *gd1989-04-06d1t08.flac
861d3b88070080ad50e8d8c5e660cb49 *gd1989-04-06d1t09.flac
94a6bf3978e7ef391f7a10afa9e0b5f1 *gd1989-04-06d1t10.flac
4c0dd211a5daa5abe3319539252ad363 *gd1989-04-06d1t11.flac
df33115e9f246b3d60385e57431c82b5 *gd1989-04-06d1t12.flac
03cd29857febbaf275837b51c757f37d *gd1989-04-06d1t13.flac
ca653cdeab6fd4e868eabadc2e01b0c4 *gd1989-04-06d1t14.flac
d5bccf5c24e19cc704ab68edcb248de5 *gd1989-04-06d2t01.flac
f61939194a24dab2950bf37cabee6a88 *gd1989-04-06d2t02.flac
44c45c017cf8b7d2c18ef29f825d7d34 *gd1989-04-06d2t03.flac
998f3ae3d32fc4bde7c6423fbf42e90d *gd1989-04-06d2t04.flac
273607d4acff546aa8c6799d07d4090d *gd1989-04-06d2t05.flac
24e2c05638122e87a9ef2f6295057e96 *gd1989-04-06d2t06.flac
0e43f7dae2574048638c1027e79a6f15 *gd1989-04-06d2t07.flac
cb84a99eacc968633b72a1494648ef12 *gd1989-04-06d3t01.flac
2397c413f106edb6001bc5064498661f *gd1989-04-06d3t02.flac
bb7b801028ead15096afdd43202df3cf *gd1989-04-06d3t03.flac
e47198a356d3862045970fe0311207f0 *gd1989-04-06d3t04.flac
d1db25c8808e37b3000c95f2eb0244da *gd1989-04-06d3t05.flac
cf7b55c9d1422a5babd65207711ea79c *gd1989-04-06d3t06.flac
99f8993a85e090877f2c75ee30508723 *gd1989-04-06d3t07.flac
fabac17c402703f5a1fcbf51c8da3402 *gd1989-04-06d3t08.flac

Comments
Add Comment
Other Sources (comments)
Healy Ultra Mix - sbd+aud>... (2) complete; Soundboard... (1) flac16; Recording... (0) flac16; source: aud... (0) flac16; Taper: Greg... (0) flac16; Recorded &... (0) flac16; (original... (0) flac16; Matrix 2... (0) DTS-Audio-CD 5.1... (0) flac16; Source Info:... (0)
Date User Comment