Browse Collections Artists Sources   Search Dates

Add Show    List Management    Help


Zero 05/24/87
Bolinas Community Center, Bolinas, CA
Comments Add Comment    Source Collectors    Add to Collection    Add to Want List    History
Source # 85270 Other Sources
Entered by skbnut
Checksums ffp , md5
Disc Counts 1 / 2
Media Size
Date Circulated
Date Added
05/23/2007
05/23/2007
Source Summary SBD > Cm > ? > CD > EAC > CDWav > Flac 
Source Information - Download Text | Download Zip
Zero
05/24/87
Bolinas Community Center - Bolinas, CA

Source: SBD > Cm > ? > CD > EAC > CDWav > Flac
    
Set 1:

d1t01 Intro Jam >
d1t02 Rigor Mortis
d1t03 Baby Baby
d1t04 Tangled Hangers
d1t05 Riding With The King
d1t06 Severe Tire Damage >
d1t07 Little Wing

Set 2:

d2t01 Little Martha
d2t02 Tear Tags Off Mattresses
d2t03 Try A Little Tenderness
d2t04 Goin' Down

Encore:
d2t05 Wondering Where You Are


shntool:

    length     expanded size   cdr  WAVE problems filename
     7:13.02       76385948    ---   --   -----   zero1987-05-24d1t01.wav
     6:48.14       72004172    ---   --   -----   zero1987-05-24d1t02.wav
     8:36.74       91196492    ---   --   -----   zero1987-05-24d1t03.wav
     5:58.07       63167708    ---   --   -----   zero1987-05-24d1t04.wav
     6:51.69       72662732    ---   --   -----   zero1987-05-24d1t05.wav
     8:35.42       90944828    ---   --   -----   zero1987-05-24d1t06.wav
     5:09.61       54651116    ---   --   -----   zero1987-05-24d1t07.wav
     6:39.38       70473020    ---   --   -----   zero1987-05-24d2t01.wav
    13:05.67      138631628    ---   --   -----   zero1987-05-24d2t02.wav
     6:14.04       65983052    ---   --   -----   zero1987-05-24d2t03.wav
     7:28.74       79201292    ---   --   -----   zero1987-05-24d2t04.wav
    12:02.17      127400828    ---   --   -----   zero1987-05-24d2t05.wav
    94:44.19     1002702816 B                     (totals for 12 files, 1.0000 overall compression ratio)
Show Checksums
ffp
zero1987-05-24d1t01.flac:846a0648f486c4eb3025ad12640f1866
zero1987-05-24d1t02.flac:1f954719fce7198ac42254dc1f5de2fe
zero1987-05-24d1t03.flac:15915f18d6e68bf69b573f06c4369e52
zero1987-05-24d1t04.flac:2a909267a26556a11ae33fdcff89c04e
zero1987-05-24d1t05.flac:6aa14affc8e558169852245269fedf6b
zero1987-05-24d1t06.flac:145a28a526bee13b9a634713113db105
zero1987-05-24d1t07.flac:81842c7f9942a87650c48458ebc64cdd
zero1987-05-24d2t01.flac:673cb022780974fa608024865df12efe
zero1987-05-24d2t02.flac:35c335e18fd787834c2961a978ee2c82
zero1987-05-24d2t03.flac:3221a080289bdc983d19d6823dd7ca12
zero1987-05-24d2t04.flac:62d8dc040bda50cf1a57f4541815a24f
zero1987-05-24d2t05.flac:f6cc1226812c4ba71d1843401fac4865
md5
3fd6df891761cf2ef3b684d13ca2d882 *ffp.txt
c28af5ff26ffdab9e32699996b3267b4 *zero1987-05-24d1t01.flac
eab9292a1e8c7901ea0a8c1e47fdaf01 *zero1987-05-24d1t02.flac
142c4f2b2723c958a194de7f356a25e5 *zero1987-05-24d1t03.flac
c371742e1b71160fafafa2ee79d69680 *zero1987-05-24d1t04.flac
f7e5df186403d7c838dd9967528b89f6 *zero1987-05-24d1t05.flac
9e3276fb2e51cc73f670299d4e11adfa *zero1987-05-24d1t06.flac
f02609337d37bb120bc213e83750e0c1 *zero1987-05-24d1t07.flac
63aed6dafb922378a722c3791063dfa8 *zero1987-05-24d2t01.flac
0d4d9c380e4229c40dd9cd710ea88dbc *zero1987-05-24d2t02.flac
e76d3f2aeb2796c7395bef4691642d5d *zero1987-05-24d2t03.flac
13c22ffd2b464ba650934f129f9db07c *zero1987-05-24d2t04.flac
2eec688267a425342b03988ce16163a2 *zero1987-05-24d2t05.flac

Comments
Add Comment
Other Sources (comments)
SBD > Cm > ? > CD > EAC >... (0)
Date User Comment