Browse Collections Artists Sources   Search Dates

Add Show    List Management    Help


Phish 11/29/03
Wachovia Spectrum, Philadelphia, PA
Comments Add Comment    Source Collectors    Add to Collection    Add to Want List    History
Source # 85534 Other Sources
Entered by Terry Watts
Checksums FFP , WAV
Disc Counts 2 / 2
Media Size
Date Circulated
Date Added
05/19/2007
06/03/2007
Source Summary flac16, 44kHz; Schoeps mk41's > kc5 > cmc6 > Lunatec V2 > Apogee AD-1000 > Sony TCD-D100 > DAT(m); DAT(m) > Tascam DA-20mkI > Tascam HD-P2 > WaveLab > CDWave > FLAC; Source by Dave Flaschner; Transfer by Jason Sobel 
Source Information - Download Text | Download Zip
Phish
November 29, 2003
Wachovia Spectrum
Philadelphia, PA

source:
Schoeps mk41 > kc5 > cmc6 > Lunatec V2 > Apogee AD-1000 > Sony D100 (@ 44.1 kHz)

transfer:
Tascam DA-20MKII > Tascam HD-P2 > CF card > usb 2.0 > pc > WaveLab 5.01b (fades) > CD Wave v1.95.1 > FLAC v1.1.4 (Level 8)

FLAC tags added with metaflac v1.1.4

recorded by Dave Flaschner
transferred by Jason Sobel ([email protected])
seeded May 19, 2007

notes:
Big thanks to Dave for letting me borrow the master DATs!

Disc 1 - [70:38]
Set I
01 - [05:41] - Wilson
02 - [04:16] - Cars Trucks Buses
03 - [09:29] - Limb By Limb
04 - [04:34] - Dirt
05 - [12:57] - Seven Below
06 - [15:40] - The Divided Sky
07 - [07:28] - Fast Enough For You
08 - [10:33] - Julius

Disc 2 - [79:18]
Set II
01 - [17:56] - Twist >
02 - [08:32] - Simple
03 - [09:26] - Taste
04 - [04:48] - Makisupa Policeman
05 - [02:27] - Buffalo Bill *
06 - [12:46] - David Bowie
07 - [03:12] - Strange Design
08 - [08:02] - Character Zero
09 - [03:30] - encore break
10 - [07:43] - Friday
11 - [00:55] - outro

** with Tom Marshall on vocals




    length     expanded size   cdr  WAVE problems filename
     5:40.65       60128924    ---   --   ---xx   ph2003-11-29d1t01.flac
     4:15.61       45125516    ---   --   ---xx   ph2003-11-29d1t02.flac
     9:28.74      100369292    ---   --   ---xx   ph2003-11-29d1t03.flac
     4:34.26       48394796    ---   --   ---xx   ph2003-11-29d1t04.flac
    12:57.26      137123996    ---   --   ---xx   ph2003-11-29d1t05.flac
    15:39.38      165729020    ---   --   ---xx   ph2003-11-29d1t06.flac
     7:28.24       79083692    ---   --   ---xx   ph2003-11-29d1t07.flac
    10:32.61      111628316    ---   --   ---xx   ph2003-11-29d1t08.flac
    17:56.33      189884060    ---   --   ---xx   ph2003-11-29d2t01.flac
     8:32.14       90349772    ---   --   ---xx   ph2003-11-29d2t02.flac
     9:26.34       99922412    ---   --   ---xx   ph2003-11-29d2t03.flac
     4:48.01       50805596    ---   --   ---xx   ph2003-11-29d2t04.flac
     2:27.17       25970828    ---   --   ---xx   ph2003-11-29d2t05.flac
    12:46.31      135195356    ---   --   ---xx   ph2003-11-29d2t06.flac
     3:11.66       33847676    ---   --   ---xx   ph2003-11-29d2t07.flac
     8:02.27       85088348    ---   --   ---xx   ph2003-11-29d2t08.flac
     3:29.59       37006412    ---   --   ---xx   ph2003-11-29d2t09.flac
     7:42.45       81602684    ---   --   ---xx   ph2003-11-29d2t10.flac
     0:54.48        9638540    ---   --   ---xx   ph2003-11-29d2t11.flac
   149:56.00     1586895236 B                     (totals for 19 files, 0.5499 overall compression ratio)






Show Checksums
FFP
ph2003-11-29d1t01.flac:6603d19988f8331282451369ea49830e
ph2003-11-29d1t02.flac:145ac19c8f3d33b78a63a17ce9ddd166
ph2003-11-29d1t03.flac:dde36ef2a7dcfb1bd52a678db23afbe8
ph2003-11-29d1t04.flac:d699d35ddd046ea488db71061b6ebe65
ph2003-11-29d1t05.flac:f09f385c43d993043289b4b33848b016
ph2003-11-29d1t06.flac:a1673f1d701615e46b0fcd2f967dcb5c
ph2003-11-29d1t07.flac:ec53923c27b4f2d36fa23572bf719bc4
ph2003-11-29d1t08.flac:04ba1ea58efe31b752d35004ed71c3e5
ph2003-11-29d2t01.flac:845e8c8979ea8c127939ca2136dfe9c7
ph2003-11-29d2t02.flac:497e2b93c6c6ea19492c78d616bad8c8
ph2003-11-29d2t03.flac:4797892ae0ebe5b72a6903ba3d82e4be
ph2003-11-29d2t04.flac:ddfb59d972d7cd6f3f46dc5c154bfdef
ph2003-11-29d2t05.flac:c4e6abe78609c79d72a50c925a3beb01
ph2003-11-29d2t06.flac:da3e83840e85b9e529171b403ebe11bd
ph2003-11-29d2t07.flac:98a5709d3509da29f9ba09a03a960a21
ph2003-11-29d2t08.flac:961ab1c85981619d4844c8eba84c8ad1
ph2003-11-29d2t09.flac:3007954e685d70728b0bd20e67e8e722
ph2003-11-29d2t10.flac:e049627ec3303b1855613a788f8813b3
ph2003-11-29d2t11.flac:a3323559b67d7ebfe2066088c9efdf5f
WAV
fed3d196d392041cbfcb88b724b2f150 *ph2003-11-29d1t01.wav
8a6887e8fd5100826725fb130a40cff4 *ph2003-11-29d1t02.wav
82af2b98196c690e2fb461592e4aa983 *ph2003-11-29d1t03.wav
7b87ab897d5549c2b3a76ac2ecd9132c *ph2003-11-29d1t04.wav
d7b2675924d3b689fee0f83ef55f4bbb *ph2003-11-29d1t05.wav
541596912ad1317949732f4381875624 *ph2003-11-29d1t06.wav
714e503d432942872ca9617b6dd31ff6 *ph2003-11-29d1t07.wav
269731056cc74ec4b40c59f1171c0f3e *ph2003-11-29d1t08.wav
c97ca4204522a2d7ff4c15cbbb1a4811 *ph2003-11-29d2t01.wav
7ff5ff1bc82461d241636634d414043f *ph2003-11-29d2t02.wav
f9e04d2ebcec239dc91263c9699c39f3 *ph2003-11-29d2t03.wav
2ab0c82d10de18490239f9712dda39d0 *ph2003-11-29d2t04.wav
93cf0f56cd6719e8bcdc27eae53c5876 *ph2003-11-29d2t05.wav
1b363f1bc73a4f0445d46c8a15701c79 *ph2003-11-29d2t06.wav
ab44da858757dae5c650c6053fe35ba7 *ph2003-11-29d2t07.wav
32bd8689d4db77a1f11524025d87322e *ph2003-11-29d2t08.wav
48e29fb67d28a402a254d622ccf852bd *ph2003-11-29d2t09.wav
e8ba8fed336ad82c21079310266c0d29 *ph2003-11-29d2t10.wav
693d2b9dae35830cf92e394c62e074e0 *ph2003-11-29d2t11.wav

Comments
Add Comment
Other Sources (comments)
flac16, 44kHz;... (0) shn16, 44kHz; Audio... (5) FOB Schoeps CMXY4V (XY) >... (4) flac16, 44kHz; AKG... (0) flac16, 44kHz;... (2) FOB Schoeps mk4v (ORTF, in... (1) flac16, 44kHz;... (0) FOB Schoeps mk4v (ORTF, in... (0) flac16, 44kHz; AKG... (0) flac16, 44kHz; MBHO... (0) flac24, 48kHz;... (0) flac16, 48kHz;... (0)
Date User Comment