Browse Collections Artists Sources   Search Dates

Add Show    List Management    Help


Phish 12/01/03
Pepsi Arena, Albany, NY
Comments Add Comment    Source Collectors    Add to Collection    Add to Want List    History
Source # 85564 Other Sources
Entered by Ben Mohr
Checksums all_ffp , all_wav_md5
Disc Counts 2 / 3
Media Size
Date Circulated
Date Added
05/20/2007
06/03/2007
Source Summary Schoeps mk41 > kc5 > CMC6 > Sonosax SX-M2 > Apogee AD-1000 > Sony D100 @44.1kHz; Tascam DA-20mkII > Tascam HD-P2 > WaveLab 5.01b > CDWav > FLAC; Taped by Dave Flaschner; Transferred by Jason Sobel 
Source Information - Download Text | Download Zip
Phish
December 1, 2003
Pepsi Arena
Albany, NY

source:
Schoeps mk41 > kc5 > cmc6 > Sonosax SX-M2 > Apogee AD-1000 > Sony D100 (@ 44.1 kHz)

transfer:
Tascam DA-20MKII > Tascam HD-P2 > CF card > usb 2.0 > pc > WaveLab 5.01b (fades) > CD Wave v1.95.1 > FLAC v1.1.4 (Level 8)

FLAC tags added with metaflac v1.1.4

recorded by Dave Flaschner
transferred by Jason Sobel ([email protected])
seeded May 20, 2007

notes:
Big thanks to Dave for letting me borrow the master DATs!

Disc 1 - [67:00]
Set I
01 - [09:32] - Chalkdust Torture
02 - [13:41] - Stash
03 - [10:31] - Guyute
04 - [07:18] - Thunderhead
05 - [04:08] - Sparkle
06 - [15:23] - Wolfman's Brother
07 - [06:27] - Good Times Bad Times

Disc 2 - [50:01]
Set II
01 - [00:47] - intro
02 - [16:57] - Tweezer ->
03 - [08:15] - 2001 ->
04 - [24:01] - You Enjoy Myself

Disc 3 - [44:11]
Set II continued
01 - [01:42] - talking / Jeff intro
02 - [05:38] - Camel Walk *
03 - [09:04] - Possum *
04 - [04:42] - Long Cool Woman in a Black Dress **
05 - [12:22] - Run Like an Antelope #
06 - [04:34] - encore break
07 - [06:10] - Fire ^

* with Jeff Holdsworth on guitar and vocals, singing tunes he wrote.
** with Jeff on guitar and vocals, first song Phish ever played, "for old times' sake"
# with Jeff on guitar and vocals; also with Tom Marshall on vocals and bell
^ with Jeff Holdsworth on guitar



    length     expanded size   cdr  WAVE problems filename
     9:31.61      100867916    ---   --   ---xx   ph2003-12-01d1t01.flac
    13:40.69      144810332    ---   --   ---xx   ph2003-12-01d1t02.flac
    10:31.18      111350780    ---   --   ---xx   ph2003-12-01d1t03.flac
     7:17.65       77239724    ---   --   ---xx   ph2003-12-01d1t04.flac
     4:07.74       43744892    ---   --   ---xx   ph2003-12-01d1t05.flac
    15:22.71      162807836    ---   --   ---xx   ph2003-12-01d1t06.flac
     6:27.17       68306828    ---   --   ---xx   ph2003-12-01d1t07.flac
     0:47.17        8330828    ---   --   ---xx   ph2003-12-01d2t01.flac
    16:56.57      179356508    ---   --   ---xx   ph2003-12-01d2t02.flac
     8:15.32       87393308    ---   --   ---xx   ph2003-12-01d2t03.flac
    24:01.27      254255948    ---   --   ---xx   ph2003-12-01d2t04.flac
     1:42.14       18025772    ---   --   ---xx   ph2003-12-01d3t01.flac
     5:37.69       59609132    ---   --   ---xx   ph2003-12-01d3t02.flac
     9:03.47       95895788    ---   --   ---xx   ph2003-12-01d3t03.flac
     4:41.59       49707212    ---   --   ---xx   ph2003-12-01d3t04.flac
    12:21.50      130830044    ---   --   ---xx   ph2003-12-01d3t05.flac
     4:33.60       48298364    ---   --   ---xx   ph2003-12-01d3t06.flac
     6:10.18       65310380    ---   --   ---xx   ph2003-12-01d3t07.flac
   161:12.00     1706141592 B                     (totals for 18 files, 0.5294 overall compression ratio)

Show Checksums
all_ffp
ph2003-12-01d1t01.flac:6f948991f0ff0967f6722b241a5d1550
ph2003-12-01d1t02.flac:75a56e32aa10f94b5d12772fcab36fec
ph2003-12-01d1t03.flac:fb447bbb9be0c64d3e6efd8fbdeb19f3
ph2003-12-01d1t04.flac:e65dcd8722d6cc973f3141942d85cfb0
ph2003-12-01d1t05.flac:2cc7d654d3739924e7d14eee4fd70755
ph2003-12-01d1t06.flac:f59764fb16424e8c98a8f935006dbcbe
ph2003-12-01d1t07.flac:ac9c501de25405fd39c90be3a747f714
ph2003-12-01d2t01.flac:d6367048e5a531a9b16303b9554ad081
ph2003-12-01d2t02.flac:621a12813ffbdfbe1e53a8efea682da6
ph2003-12-01d2t03.flac:8c18232b2c30abc7d99a9e0e98b18d44
ph2003-12-01d2t04.flac:a329404af269cd9a47367190950faad6
ph2003-12-01d3t01.flac:c0ae8e917e5f53ddeffc5a750826edcb
ph2003-12-01d3t02.flac:2691e9174500622458e09027eeaa7956
ph2003-12-01d3t03.flac:039e6fdfb07cb264be86440b5e04f245
ph2003-12-01d3t04.flac:b0732bf2bba0027d0d0ae46ad6986c94
ph2003-12-01d3t05.flac:e2e17eb673869277ca52b5278672fd3c
ph2003-12-01d3t06.flac:922aebb8247ff05fb4a92226c5c5e1de
ph2003-12-01d3t07.flac:55d25d7fe3ce1e0d06d403df67b6a541
all_wav_md5
0a78fcbd20fb1f1a425dd9f7de368965 *ph2003-12-01d1t01.wav
c9481af6959d3799a25c5572af030851 *ph2003-12-01d1t02.wav
6380077783d2150d9a7bf8b4cef0ceec *ph2003-12-01d1t03.wav
1b5be8c95ec40abeea2a1dadf2a8d5fb *ph2003-12-01d1t04.wav
397729398e07370f14b41eadadc60f0c *ph2003-12-01d1t05.wav
6405022d96d266af44780ccfa66be222 *ph2003-12-01d1t06.wav
2431643c79c9c9b908cc9f56bb6ea683 *ph2003-12-01d1t07.wav
d6d5fde99dc0b4e654d5f2a4c1a746e0 *ph2003-12-01d2t01.wav
268461b6980ce424b94cf320e8aed1d1 *ph2003-12-01d2t02.wav
1a91c6dee72f835b3bde82cf9a26ad55 *ph2003-12-01d2t03.wav
1d231d782e7e7f2206b2f57a69e5d0d0 *ph2003-12-01d2t04.wav
1caade73255b5196e7ba424e9e1405c7 *ph2003-12-01d3t01.wav
c65276d1b9c2e91192226d4fc4d81a67 *ph2003-12-01d3t02.wav
3bdce959372081d639f4ad2fd099e33f *ph2003-12-01d3t03.wav
41fa4d9c6ea68ecd9f0bdd2315dafd40 *ph2003-12-01d3t04.wav
be7bd892898f04df66b96891e5989406 *ph2003-12-01d3t05.wav
a7ab080b3c71df01d4936ce6e950e173 *ph2003-12-01d3t06.wav
9f99005b8300d1a98e2115e7f657e7ba *ph2003-12-01d3t07.wav

Comments
Add Comment
Other Sources (comments)
Neumann km184 (DIN)> PS-2 >... (0) ADK a51s-LE > UA-5 > D7... (0) Neumann TLM170 (ORTF,... (0) LivePhish FLAC download;... (0) Schoeps M222/mk5 (cardioid,... (1) AKG c480b/ck61 (DIN) >... (0) Schoeps MK41 (nos) > KC5 >... (0) Neumann u89 > Lunatec V2 >... (0) unknown audience > D7; D7 >... (0) flac16 44.1kHz OTS;... (0) flac16 48kHz OTS;... (0)
Date User Comment