Browse Collections Artists Sources   Search Dates

Add Show    List Management    Help


Grateful Dead 11/08/87
Henry J. Kaiser Convention Center, Oakland, CA
Comments Add Comment    Source Collectors    Add to Collection    Add to Want List    History
Source # 85587 Other Sources
Entered by Gary Field
Checksums ffp , flac-md5
Disc Counts 2 / 2
Media Size
Date Circulated
Date Added
06/04/2007
06/04/2007
Source Summary flac16; Recording Info: SBD -> Cassette Master (TDK MA-XG90) Transfer Info: Cassette Master (Tascam 122mkII) -> Apogee MiniMe (24bit/48k) -> Samplitude Professional v9.02 -> FLAC/16 All Transfers and Mastering By Charlie Miller; Upgrade in circulation 
  Archive
Source Information - Download Text | Download Zip
Grateful Dead - November 8, 1987
Henry J. Kaiser Convention Center - Oakland, CA

Recording Info:
SBD -> Cassette Master (TDK MA-XG90)

Transfer Info:
Cassette Master (Tascam 122mkII) -> Apogee MiniMe (24bit/48k) ->
Samplitude Professional v9.02 -> FLAC/16
(2 Discs Audio / 2 Discs FLAC)

All Transfers and Mastering By Charlie Miller
[email protected]
April 7, 2007

Patch Info:
(FOB) Schoeps CMC4/MK4 -> PCM -> Sound Forge -> CD supplies:
West LA Fadeaway (0:00 - 0:09)
Space (0:00 - 0:13)

Notes:
-- Encore on end of 1st Set to fit show on 2 discs
-- Encore can be re-joined with 2nd Set seamlessly
-- Thanks to Paul Scotton and Joani Walker for the tapes

Set 1:
d1t01 - Iko Iko
d1t02 - Little Red Rooster
d1t03 - Stagger Lee
d1t04 - Mexicali Blues ->
d1t05 - Big River
d1t06 - West L.A. Fadeaway
d1t07 - The Music Never Stopped ->
d1t08 - Don't Ease Me In

Set 2:
d2t01 - China Cat Sunflower ->
d2t02 - I Know You Rider ->
d2t03 - Looks Like Rain ->
d2t04 - Crazy Fingers ->
d2t05 - Truckin' ->
d2t06 - Drums ->
d2t07 - Space ->
d2t08 - Spanish Jam ->
d2t09 - The Other One ->
d2t10 - Stella Blue ->
d2t11 - Turn On Your Lovelight

Encore:
d1t09 - Crowd/Tuning
d1t10 - Just Like Tom Thumb's Blues ->
d1t11 - Touch Of Grey


SHNTOOL OUTPUT:
    length     expanded size   cdr  WAVE problems filename
     6:47.22       71846588    ---   --   -----   gd87-11-08d1t01.wav
     9:15.59       98040812    ---   --   -----   gd87-11-08d1t02.wav
     6:18.51       66799196    ---   --   -----   gd87-11-08d1t03.wav
     4:46.58       50586860    ---   --   -----   gd87-11-08d1t04.wav
     5:54.52       62567948    ---   --   -----   gd87-11-08d1t05.wav
     7:28.70       79191884    ---   --   -----   gd87-11-08d1t06.wav
     6:55.69       73368332    ---   --   -----   gd87-11-08d1t07.wav
     3:35.62       38071868    ---   --   -----   gd87-11-08d1t08.wav
     1:08.44       12098732    ---   --   -----   gd87-11-08d1t09.wav
     4:35.44       48613532    ---   --   -----   gd87-11-08d1t10.wav
     5:52.71       62259836    ---   --   -----   gd87-11-08d1t11.wav
     6:47.61       71938316    ---   --   -----   gd87-11-08d2t01.wav
     5:25.17       57370028    ---   --   -----   gd87-11-08d2t02.wav
     8:06.45       85836284    ---   --   -----   gd87-11-08d2t03.wav
     8:19.05       88035404    ---   --   -----   gd87-11-08d2t04.wav
     6:55.55       73335404    ---   --   -----   gd87-11-08d2t05.wav
    10:19.28      109257500    ---   --   -----   gd87-11-08d2t06.wav
     3:57.18       41849180    ---   --   -----   gd87-11-08d2t07.wav
     4:00.64       42486572    ---   --   -----   gd87-11-08d2t08.wav
     9:06.52       96436748    ---   --   -----   gd87-11-08d2t09.wav
     8:52.48       93957740    ---   --   -----   gd87-11-08d2t10.wav
     5:37.69       59609132    ---   --   -----   gd87-11-08d2t11.wav
   140:10.14     1483557896 B                     (totals for 22 files)

Show Checksums
ffp
gd87-11-08d1t01.flac:da525517165c95f607da396795e24ca1
gd87-11-08d1t02.flac:db3b67db83ebc2d0b5ba6daa2ec6f7ee
gd87-11-08d1t03.flac:d801539b5d0524a7b18cde1fe40d7173
gd87-11-08d1t04.flac:7ecb57f8fd9c5e2c037f33e965722e5d
gd87-11-08d1t05.flac:fab33da2a9051433707fba583b8765dd
gd87-11-08d1t06.flac:f256c8527e0f902075c76ae29d8ffd60
gd87-11-08d1t07.flac:317af8a982385699382ca521f55bbae0
gd87-11-08d1t08.flac:67571933e908d4b30b5d90d31a9e9fd6
gd87-11-08d1t09.flac:854af1549c88dc18fc8aa4fab464a825
gd87-11-08d1t10.flac:29304bff1f452c27315c2723d7c46b75
gd87-11-08d1t11.flac:9ef39c375c681715b87621e2c620dc9b
gd87-11-08d2t01.flac:76eabb07757c2c251625c3734acf213a
gd87-11-08d2t02.flac:b4baeac9b730f9188d8667f92494c804
gd87-11-08d2t03.flac:0cb1fc98428fee146222ce589fa93583
gd87-11-08d2t04.flac:e501a3aba83986193e96f0bfbf55143e
gd87-11-08d2t05.flac:c64606b4301862bd2f7bbf932d14b178
gd87-11-08d2t06.flac:1a51823da94e2e200be806883fa51d12
gd87-11-08d2t07.flac:b1635894e74bfc918629ad1b44b15abe
gd87-11-08d2t08.flac:c08c9901acd88d0b29981091b72200ec
gd87-11-08d2t09.flac:e5f5e2836ccb40e4ae24ef57ff9aaff4
gd87-11-08d2t10.flac:f129404a02913695961b93fadbceb151
gd87-11-08d2t11.flac:34de0bfcd714add48669b8b9cb08cb4a
flac-md5
2dc5c0bcd03c729b4f8723e450c37bf7 *gd87-11-08d1t01.flac
cefce7f54e3f6522efaa60f677aca6f8 *gd87-11-08d1t02.flac
964be3fe3e7bead9cedb17565ed631ba *gd87-11-08d1t03.flac
e0957fe1f1f8ea2e831cf3b1230d9905 *gd87-11-08d1t04.flac
33d1232d5a9458c12504b5c96b1d85e8 *gd87-11-08d1t05.flac
44cfb81877339194eb2945c2ec919c88 *gd87-11-08d1t06.flac
00eeac2388847c620c64fb9dee5de419 *gd87-11-08d1t07.flac
113d9a683db5018f367bf1168ade5067 *gd87-11-08d1t08.flac
6105ca0bcf844ac948a9c183ef26b6ab *gd87-11-08d1t09.flac
aae177575a98451034a3bc7139f1801f *gd87-11-08d1t10.flac
3f2c441c595d98b59a40a21c6b690fe2 *gd87-11-08d1t11.flac
bf0ff72c25f4d4d9bf32ba6b78b5f1dc *gd87-11-08d2t01.flac
e9a57503dce95cf7e136d0e774304f9e *gd87-11-08d2t02.flac
dc37841bb3017ae1423e8c41805b6a86 *gd87-11-08d2t03.flac
dd0e679ab746c2d83a39f62467d703f2 *gd87-11-08d2t04.flac
179d74791258bd7c8528f0842522df72 *gd87-11-08d2t05.flac
d947576ee98423e6c9bf4b38490c6566 *gd87-11-08d2t06.flac
3be74a7a1ad6ed91a0df15496088ee56 *gd87-11-08d2t07.flac
4bdd98b5bc749eaec69ef507cfe2b4bc *gd87-11-08d2t08.flac
b83bc6f4e1b4d75bfb3f05624b9bef40 *gd87-11-08d2t09.flac
ad4bb71cf944b3bbf59707df698bb33a *gd87-11-08d2t10.flac
bbd08b5f18b19818c1207b266bc7c835 *gd87-11-08d2t11.flac

Comments
Add Comment
Other Sources (comments)
FOB, Schoeps CMC44 (110'... (0) flac16; Recording... (0)
Date User Comment