Browse Collections Artists Sources   Search Dates

Add Show    List Management    Help


Grateful Dead 11/14/87
Long Beach Arena, Long Beach, CA
Comments Add Comment    Source Collectors    Add to Collection    Add to Want List    History
Source # 85588 Other Sources
Entered by Gary Field
Checksums ffp , flac-md5
Disc Counts 2 / 3
Media Size
Date Circulated
Date Added
06/04/2007
06/04/2007
Source Summary flac16; Recording Info: SBD -> Cassette Master -> Cassette Transfer Info: Cassette (Tascam 122mkII) -> Apogee MiniMe (24bit/48k) -> Samplitude Professional v9.02 -> FLAC/16 All Transfers and Mastering By Charlie Miller; Upgrade in circulation 
  Archive
Source Information - Download Text | Download Zip
Grateful Dead - November 14, 1987
Long Beach Arena - Long Beach, CA

Recording Info:
SBD -> Cassette Master -> Cassette

Transfer Info:
Cassette (Tascam 122mkII) -> Apogee MiniMe (24bit/48k) ->
Samplitude Professional v9.02 -> FLAC/16
(3 Discs Audio / 2 Discs FLAC)

All Transfers and Mastering By Charlie Miller
[email protected]
April 11, 2007

Notes:
-- Set 2 is seamless
-- Tape flip at start of Deal
-- Thanks to Paul Scotton, Joani Walker and Steve Marcus for the tapes

Set 1:
d1t01 - Tuning
d1t02 - Shakedown Street
d1t03 - Little Red Rooster
d1t04 - Althea
d1t05 - When I Paint My Masterpiece
d1t06 - Hey Pocky Way
d1t07 - Deal

Set 2:
d1t08 - Maggie's Farm ->
d1t09 - Cumberland Blues
d2t01 - Playing In The Band ->
d2t02 - Terrapin Station ->
d2t03 - Drums ->
d2t04 - Space ->
d2t05 - I Need A Miracle ->
d2t06 - Stella Blue ->
d2t07 - Throwing Stones ->
d2t08 - Turn On Your Lovelight

Encore:
d2t09 - The Mighty Quinn (Quinn The Eskimo)


SHNTOOL OUTPUT:
    length     expanded size   cdr  WAVE problems filename
     0:37.19        6571532    ---   --   -----   gd87-11-14d1t01.wav
    12:18.60      130324364    ---   --   -----   gd87-11-14d1t02.wav
    10:37.61      112510316    ---   --   -----   gd87-11-14d1t03.wav
     8:48.53       93263900    ---   --   -----   gd87-11-14d1t04.wav
     5:37.29       59515052    ---   --   -----   gd87-11-14d1t05.wav
     5:52.27       62156348    ---   --   -----   gd87-11-14d1t06.wav
     8:43.42       92356028    ---   --   -----   gd87-11-14d1t07.wav
     6:47.18       71837180    ---   --   -----   gd87-11-14d1t08.wav
     6:13.48       65910140    ---   --   -----   gd87-11-14d1t09.wav
     8:08.58       86219660    ---   --   -----   gd87-11-14d2t01.wav
    13:00.00      137592044    ---   --   -----   gd87-11-14d2t02.wav
     7:23.66       78300476    ---   --   -----   gd87-11-14d2t03.wav
     6:37.31       70103756    ---   --   -----   gd87-11-14d2t04.wav
     4:12.11       44478716    ---   --   -----   gd87-11-14d2t05.wav
     8:52.61       93988316    ---   --   -----   gd87-11-14d2t06.wav
     9:32.37      100987868    ---   --   -----   gd87-11-14d2t07.wav
     7:46.00       82202444    ---   --   -----   gd87-11-14d2t08.wav
     4:37.64       49013372    ---   --   -----   gd87-11-14d2t09.wav
   135:48.10     1437331512 B                     (totals for 18 files)

Show Checksums
ffp
gd87-11-14d1t01.flac:a5e594a958bdea33c0335b610744da46
gd87-11-14d1t02.flac:019665b7512be92f863c1b88a0abe9bd
gd87-11-14d1t03.flac:ef1754f792dc281a55d1602b1c8d0689
gd87-11-14d1t04.flac:3f253ef099a2321c4189ad17f0b2f61c
gd87-11-14d1t05.flac:054206108dd1ea00c5c82cfca633f230
gd87-11-14d1t06.flac:2041b9d1f9636ce4c221558135ddb27d
gd87-11-14d1t07.flac:e5d095996072e207956f5dd2c5b6dbfc
gd87-11-14d1t08.flac:e8d68c2a829e31ea117db1b69afd005c
gd87-11-14d1t09.flac:8122554438dcb151a1c3dd59f3279344
gd87-11-14d2t01.flac:2daa842dea2b0983d7c31d5ccd485f17
gd87-11-14d2t02.flac:58c90d29117bce81ab6d597a55ca74fa
gd87-11-14d2t03.flac:b718af296f5b382a7d61913b0cdf4225
gd87-11-14d2t04.flac:75e78bd6d54deec229ebde2f3f600dee
gd87-11-14d2t05.flac:e4000b79eb170308ee466f715f535fc8
gd87-11-14d2t06.flac:34a5f10e69ef70ce060a8f82a551b20b
gd87-11-14d2t07.flac:349a652a0eda22746d1722289b2beaf3
gd87-11-14d2t08.flac:0e2283a5d24e95898d259106643859e6
gd87-11-14d2t09.flac:c80526617071c7ef1578697f6cbb2c5c
flac-md5
e750c0c62088588d096c01def4d1130a *gd87-11-14d1t01.flac
aeb7c4d091ae9e242519cdb75cdd372d *gd87-11-14d1t02.flac
3bb257a00493233f53dcf27dcb40e0c9 *gd87-11-14d1t03.flac
23675b4cd39fd780eeae44febdc803a9 *gd87-11-14d1t04.flac
637722e89d3ad0ca4079dd0e30b3370b *gd87-11-14d1t05.flac
1138433fbbddd3fcd986f069c58bea08 *gd87-11-14d1t06.flac
d8486e86f7c3d887e0da83ccb2aa55a3 *gd87-11-14d1t07.flac
52f113b52ab8c302d9bba0a6ae6b915d *gd87-11-14d1t08.flac
5fc1dc910936d24979f210811546c5f1 *gd87-11-14d1t09.flac
adae3f80cd874873a3cd2640c8a3a47e *gd87-11-14d2t01.flac
3cd3862240240e69f6e6b9cb0ead2c0b *gd87-11-14d2t02.flac
2c57783b4b64c0d83c93e6f4942f9ac2 *gd87-11-14d2t03.flac
0ef59dc915c12dcdf90d1846a8a4464c *gd87-11-14d2t04.flac
65ac56285641f4fa31e11299cb161535 *gd87-11-14d2t05.flac
2c41194db87dcd3138c7187cde05ac6d *gd87-11-14d2t06.flac
6406143e884ee1a5d2399cf7808d8525 *gd87-11-14d2t07.flac
79fe475d5960cf15044d63458f9b907a *gd87-11-14d2t08.flac
7e787de32b269c35d284de534d235664 *gd87-11-14d2t09.flac

Comments
Add Comment
Other Sources (comments)
Partial, 4 songs; SBD -> Cm... (0) Source 1 = SBD -> Cm ->... (1) AUD>MC>DAT>CD; via Paul B;... (2) flac16; Recording... (0)
Date User Comment