Browse Collections Artists Sources   Search Dates

Add Show    List Management    Help


Grateful Dead 12/27/87
Oakland-Alameda County Coliseum, Oakland, CA
Comments Add Comment    Source Collectors    Add to Collection    Add to Want List    History
Source # 85592 Other Sources
Entered by Matt Vernon
Checksums ffp , flac-md5
Disc Counts 0 / 0
Media Size
Date Circulated
Date Added
06/04/2007
06/04/2007
Source Summary flac16; Recording Info: SBD -> Cassette Master (TDK MA-XG90) Transfer Info: Cassette Master (Tascam 122mkII) -> Apogee MiniMe (24bit/48k) -> Samplitude Professional v9.02 -> FLAC/16 All Transfers and Mastering By Charlie Miller 
  Archive
Source Information - Download Text | Download Zip
Grateful Dead - December 27, 1987
Oakland Coliseum Arena - Oakland, CA

Recording Info:
SBD -> Cassette Master (TDK MA-XG90)

Transfer Info:
Cassette Master (Tascam 122mkII) -> Apogee MiniMe (24bit/48k) ->
Samplitude Professional v9.02 -> FLAC/16
(3 Discs Audio / 2 Discs FLAC)

All Transfers and Mastering By Charlie Miller
[email protected]
April 11, 2007

Notes:
-- Levels start off very low, but get fixed quickly
-- Two different SBD Cassette Masters were used to make this seamless
-- Thanks to Paul Scotton and Joani Walker for the tapes

Set 1:
d1t01 - Touch Of Grey
d1t02 - Jack Straw
d1t03 - Peggy-O
d1t04 - Walkin' Blues
d1t05 - Ramble On Rose
d1t06 - Me And My Uncle ->
d1t07 - Big River
d1t08 - It Must Have Been The Roses
d1t09 - Desolation Row ->
d1t10 - Don't Ease Me In

Set 2:
d2t01 - Tuning ->
d2t02 - Playing In The Band ->
d2t03 - Uncle john's Band ->
d2t04 - Estimated Prophet ->
d2t05 - Eyes Of The World ->
d2t06 - Drums ->
d3t01 - Space ->
d3t02 - Dear Mr. Fantasy ->
d3t03 - Stella Blue ->
d3t04 - Throwing Stones ->
d3t05 - Turn On Your Lovelight

Encore:
d3t06 - Crowd/Tuning
d3t07 - The Mighty Quinn (Quinn The Eskimo)


SHNTOOL OUTPUT:
    length     expanded size   cdr  WAVE problems filename
     6:37.61       70174316    ---   --   -----   gd87-12-27d1t01.wav
     7:19.37       77526668    ---   --   -----   gd87-12-27d1t02.wav
     6:04.54       64336652    ---   --   -----   gd87-12-27d1t03.wav
     5:56.19       62843132    ---   --   -----   gd87-12-27d1t04.wav
    10:24.11      110099516    ---   --   -----   gd87-12-27d1t05.wav
     2:44.54       29056652    ---   --   -----   gd87-12-27d1t06.wav
     6:49.07       72164108    ---   --   -----   gd87-12-27d1t07.wav
     5:51.08       61935260    ---   --   -----   gd87-12-27d1t08.wav
     9:26.40       99936524    ---   --   -----   gd87-12-27d1t09.wav
     3:38.63       38603420    ---   --   -----   gd87-12-27d1t10.wav
     2:24.61       25545116    ---   --   -----   gd87-12-27d2t01.wav
     9:07.69       96653132    ---   --   -----   gd87-12-27d2t02.wav
     8:02.22       85076588    ---   --   -----   gd87-12-27d2t03.wav
    10:31.64      111458972    ---   --   -----   gd87-12-27d2t04.wav
     8:30.07       89980508    ---   --   -----   gd87-12-27d2t05.wav
     9:36.48      101719340    ---   --   -----   gd87-12-27d2t06.wav
     8:38.66       91530476    ---   --   -----   gd87-12-27d3t01.wav
     6:48.67       72128828    ---   --   -----   gd87-12-27d3t02.wav
     7:36.36       80523116    ---   --   -----   gd87-12-27d3t03.wav
     9:20.16       98821676    ---   --   -----   gd87-12-27d3t04.wav
     5:12.18       55079180    ---   --   -----   gd87-12-27d3t05.wav
     1:40.09       17661212    ---   --   -----   gd87-12-27d3t06.wav
     4:45.14       50306972    ---   --   -----   gd87-12-27d3t07.wav
   157:08.26     1663161364 B                     (totals for 23 files)
Show Checksums
ffp
gd87-12-27d1t01.flac:3ffeb887feacc5559c4a34777097ba2d
gd87-12-27d1t02.flac:9020e5ea14af4317be4490dc2a1ff822
gd87-12-27d1t03.flac:8c919365d9f423155e18370dadd58c5f
gd87-12-27d1t04.flac:c1fd522fa328f0cbac1f43c0e91ceeb2
gd87-12-27d1t05.flac:f4cfc61e8a7351fe42a616a359a42d58
gd87-12-27d1t06.flac:6566809d75ebbd5513e287bbc0f2ade1
gd87-12-27d1t07.flac:b8a4c48c055f2c83c55144b99bd7e587
gd87-12-27d1t08.flac:6204c7a97114a95a6a9b914d13df8959
gd87-12-27d1t09.flac:df6c225ddca03517b86a285fd4c7942e
gd87-12-27d1t10.flac:b748944c9296826a16e902564ef820c0
gd87-12-27d2t01.flac:698e70ce9ff3be7be9a6ae1c033121eb
gd87-12-27d2t02.flac:809f289bf9103051bd1cec7bdeb19f82
gd87-12-27d2t03.flac:241d5f0b998b7343dab70fc0fd055085
gd87-12-27d2t04.flac:1c7fd6ca2cb90cc365bf444b93e09554
gd87-12-27d2t05.flac:130862782520e7bcc06900ef0d7e9b07
gd87-12-27d2t06.flac:712bf87ba051c2a91668528c7ddf4157
gd87-12-27d3t01.flac:67caa696bbefed4e8cf273a11f72529b
gd87-12-27d3t02.flac:0b814d786e5840e8031b08260a95b902
gd87-12-27d3t03.flac:2631bdac1062e617b3360b23931e7da0
gd87-12-27d3t04.flac:ce833b1ddc75f610d95dd75350538790
gd87-12-27d3t05.flac:26c56d22f922da8d50b6c0d96b116cf1
gd87-12-27d3t06.flac:c309d15c3aa946cf600660d73d7c3f76
gd87-12-27d3t07.flac:16c304f0e837d7e1dde877f8f6142d6b
flac-md5
1da6b3a4339411511c172694124e22de *gd87-12-27d1t01.flac
16e8d6fb2b83b7c163d551bf250b9145 *gd87-12-27d1t02.flac
deadcc3ca125252ff22e922ad4937408 *gd87-12-27d1t03.flac
7e58330302f38d1a4b8fcef7da338bba *gd87-12-27d1t04.flac
865d369a3a2984dff9572ba8ddef2601 *gd87-12-27d1t05.flac
90f40aa717075e6650c33e7b144e7e3b *gd87-12-27d1t06.flac
889f3d2a1840ce82de5e3823edce3cb8 *gd87-12-27d1t07.flac
bea302aa3fdabf18cc7d7e6d592f0f76 *gd87-12-27d1t08.flac
1b5d7909d37f5ffbd09760c008390e27 *gd87-12-27d1t09.flac
990f3745d852882c8255cb4cf4a95e38 *gd87-12-27d1t10.flac
a73d95f8dfac805696ef256ddb107b14 *gd87-12-27d2t01.flac
e0d379949a6fafcaa9f15c96fec56e69 *gd87-12-27d2t02.flac
dec33c9d0b999e923880edc1da324c79 *gd87-12-27d2t03.flac
eb9e4cd456f9ea98a763adc830700944 *gd87-12-27d2t04.flac
32e88a0ae9ff58eaae58700a442c2798 *gd87-12-27d2t05.flac
4b8e3b6554456fe27dfefd48219c874b *gd87-12-27d2t06.flac
1f1882b0bc6146f8b5115096b870329a *gd87-12-27d3t01.flac
35cf87fbbc68ab5584a8f930a783bcd8 *gd87-12-27d3t02.flac
0fb912a2b7f2cac9d734369022afdde7 *gd87-12-27d3t03.flac
a897e626ac69c4a0af0dd34f94b97124 *gd87-12-27d3t04.flac
ffdd5852a4a75c35253026e458bce85a *gd87-12-27d3t05.flac
7ece9f266fe78b2e9df218fb50f34d16 *gd87-12-27d3t06.flac
0d73d09740159a559f944915018fb8a6 *gd87-12-27d3t07.flac

Comments
Add Comment
Other Sources (comments)
SBD -> Cm -> Dat (Tascam... (0) Soundboard-> Cassette... (0) flac16; Source:... (1) flac24; OTS AUD: 2x... (0) flac24; Source:... (0) flac16; Source Info:... (0)
Date User Comment