Browse Collections Artists Sources   Search Dates

Add Show    List Management    Help


Grateful Dead 12/28/87
Oakland-Alameda County Coliseum, Oakland, CA
Comments Add Comment    Source Collectors    Add to Collection    Add to Want List    History
Source # 85593 Other Sources
Entered by Matt Vernon
Checksums ffp , flac-md5
Disc Counts 2 / 2
Media Size
Date Circulated
Date Added
06/04/2007
06/04/2007
Source Summary flac16; Recording Info: SBD -> Cassette Master (TDK MA-XG90) Transfer Info: Cassette Master (Tascam 122mkII) -> Apogee MiniMe (24bit/48k) -> Samplitude Professional v9.02 -> FLAC/16 All Transfers and Mastering By Charlie Miller 
  Archive
Source Information - Download Text | Download Zip
Grateful Dead - December 28, 1987
Oakland Coliseum Arena - Oakland, CA

Recording Info:
SBD -> Cassette Master (TDK MA-XG90)

Transfer Info:
Cassette Master (Tascam 122mkII) -> Apogee MiniMe (24bit/48k) ->
Samplitude Professional v9.02 -> FLAC/16
(2 Discs Audio / 2 Discs FLAC)

All Transfers and Mastering By Charlie Miller
[email protected]
April 11, 2007

Notes:
-- Disc change is seamless
-- Major problems with the ultrabox feed in first 3 songs
-- Problem solved by switching to pure SBD feed at Minglewood
-- Two different SBD Cassette Masters were used to make this seamless
-- Thanks to Paul Scotton and Joani Walker for the tapes

Set 1:
d1t01 - Tuning
d1t02 - Feel Like A Stranger ->
d1t03 - Franklin's Tower
d1t04 - New Minglewood Blues
d1t05 - Row Jimmy
d1t06 - Far From Me
d1t07 - When I Paint My Masterpiece ->
d1t08 - Sugaree
d1t09 - Hell In A Bucket

Set 2:
d1t10 - Tuning
d1t11 - China Cat Sunflower ->
d1t12 - I Know You Rider
d2t01 - We Want Phil Chant ->
d2t02 - Cumberland Blues
d2t03 - Man Smart (Woman Smarter) ->
d2t04 - Drums ->
d2t05 - Space ->
d2t06 - The Wheel ->
d2t07 - Truckin' ->
d2t08 - Smokestack Lightnin' ->
d2t09 - Black Peter ->
d2t10 - Sugar Magnolia

Encore:
d2t11 - Black Muddy River


SHNTOOL OUTPUT:
    length     expanded size   cdr  WAVE problems filename
     1:35.50       16875644    ---   --   -----   gd87-12-28d1t01.wav
     8:09.16       86297276    ---   --   -----   gd87-12-28d1t02.wav
     9:00.16       95293676    ---   --   -----   gd87-12-28d1t03.wav
     9:11.74       97370492    ---   --   -----   gd87-12-28d1t04.wav
    11:55.31      126198956    ---   --   -----   gd87-12-28d1t05.wav
     4:51.43       51433580    ---   --   -----   gd87-12-28d1t06.wav
     5:20.62       56593868    ---   --   -----   gd87-12-28d1t07.wav
    10:00.60      105981164    ---   --   -----   gd87-12-28d1t08.wav
     6:34.57       69635708    ---   --   -----   gd87-12-28d1t09.wav
     1:18.61       13902716    ---   --   -----   gd87-12-28d1t10.wav
     5:39.53       59924300    ---   --   -----   gd87-12-28d1t11.wav
     5:58.61       63294716    ---   --   -----   gd87-12-28d1t12.wav
     0:24.40        4327724    ---   --   -----   gd87-12-28d2t01.wav
     6:59.57       74045708    ---   --   -----   gd87-12-28d2t02.wav
     7:08.64       75649772    ---   --   -----   gd87-12-28d2t03.wav
     8:26.38       89347820    ---   --   -----   gd87-12-28d2t04.wav
    11:24.09      120678812    ---   --   -----   gd87-12-28d2t05.wav
     4:38.53       49163900    ---   --   -----   gd87-12-28d2t06.wav
     6:44.12       71293868    ---   --   -----   gd87-12-28d2t07.wav
     2:28.56       26238956    ---   --   -----   gd87-12-28d2t08.wav
     9:19.60       98748764    ---   --   -----   gd87-12-28d2t09.wav
    11:10.53      118312700    ---   --   -----   gd87-12-28d2t10.wav
     6:09.20       65138684    ---   --   -----   gd87-12-28d2t11.wav
   154:32.71     1635748804 B                     (totals for 23 files)
Show Checksums
ffp
gd87-12-28d1t01.flac:0462fc6ca2ad256d4c81115fb676634e
gd87-12-28d1t02.flac:2d4cf5b753159b598e91a715800c23d2
gd87-12-28d1t03.flac:43bd69d10c325c4899b30ac6fcdcf0f1
gd87-12-28d1t04.flac:035c28c70eec1551d90e602bb1841a61
gd87-12-28d1t05.flac:892c1da1f4e03ae3bd330b918b829de8
gd87-12-28d1t06.flac:ed72dfbc0360796646ddad6600743c0c
gd87-12-28d1t07.flac:2526001ddec4f85d8541df9e3290332d
gd87-12-28d1t08.flac:6842c1ac5872fe7f4a82aadfc8194ed4
gd87-12-28d1t09.flac:a0dc68743ef150cd47b2980be93e3da9
gd87-12-28d1t10.flac:8eeb5a113d3183aadfedbb99e61c72a3
gd87-12-28d1t11.flac:514638aa478ab21e51160de532925e90
gd87-12-28d1t12.flac:e021d8a792bb50982cc10942fabe3989
gd87-12-28d2t01.flac:2895762da3117095716ef3dfe67ba940
gd87-12-28d2t02.flac:aa203e67f659207497cb4dcf748ace1f
gd87-12-28d2t03.flac:47829d230377e3085bee106c0b0118bb
gd87-12-28d2t04.flac:bc9056e121e9dd5319522d7537e6c7e2
gd87-12-28d2t05.flac:eaf7d571d309ec008ba2dbdef7a03f6b
gd87-12-28d2t06.flac:7f9424f873772c3646f91c9523c46c01
gd87-12-28d2t07.flac:4420479e769d0a21186a34e7eddb4642
gd87-12-28d2t08.flac:c7d1444e1a4341ab1cc621dfffc4e606
gd87-12-28d2t09.flac:3ba496146889460f26661fead4f1fd64
gd87-12-28d2t10.flac:a80dc5c946a6e6c5828bbff6b377b97c
gd87-12-28d2t11.flac:4d4ee4af96cc3bd8930e20e2349dde02
flac-md5
2a55f575bc561c1134ec129e69a6f328 *gd87-12-28d1t01.flac
8368b9e7c74763e5bce964de2d90309c *gd87-12-28d1t02.flac
397721b867af6e4f15daed7dc359b6e7 *gd87-12-28d1t03.flac
cba1682d3b4fc0f32a81d68da9acd9d9 *gd87-12-28d1t04.flac
1286647ee275415cd4e707cea4e7bac5 *gd87-12-28d1t05.flac
61fd4099b2acfbcaa5dde966d972b4f5 *gd87-12-28d1t06.flac
e8dde76835f0d3c00c5bba07d5c15923 *gd87-12-28d1t07.flac
e63c459de066285ce97bb61d2f861284 *gd87-12-28d1t08.flac
5ca4999021f9cd30a3fe1b85f440a125 *gd87-12-28d1t09.flac
a8b47b546d5bef396b9d36e067ec51c8 *gd87-12-28d1t10.flac
dfc4eafd6546200864526a17ab297044 *gd87-12-28d1t11.flac
35a71ec4a7afd55a6af66d022e9d6750 *gd87-12-28d1t12.flac
0f2d64949611de83036f804b5ba53043 *gd87-12-28d2t01.flac
e53d4e3f79f93047b31547ac199b6357 *gd87-12-28d2t02.flac
3030a1408160a18dd845d41eb8114832 *gd87-12-28d2t03.flac
952dd8dfe123e404b77e01fa3505886a *gd87-12-28d2t04.flac
78748c63b3eb45130056a377bd9e77d7 *gd87-12-28d2t05.flac
db21dc894eb6e3f14571ce2aadb754be *gd87-12-28d2t06.flac
41dd304ac7aac587b21beb04d7bd79b1 *gd87-12-28d2t07.flac
aed8af89b27ef244ad81df18963d0616 *gd87-12-28d2t08.flac
44d00ff45d95d0500fdc90656686a8ff *gd87-12-28d2t09.flac
d6484e0bfb0583938ce81f80d3c0e8c3 *gd87-12-28d2t10.flac
2d81c431c2874231200260abb43d548b *gd87-12-28d2t11.flac

Comments
Add Comment
Other Sources (comments)
Schoeps... (0) Ultramatrix... (2) Master Cassette Soundboard... (1) flac24; OTS AUD: 2x... (0) flac24; Source:... (0)
Date User Comment