Browse Collections Artists Sources   Search Dates

Add Show    List Management    Help


Grateful Dead 12/31/81
Oakland Auditorium Arena, Oakland, CA
Comments Add Comment    Source Collectors    Add to Collection    Add to Want List    History
Source # 85628 Other Sources
Entered by Matt Vernon
Checksums ffp , flac-md5
Disc Counts 2 / 3
Media Size
Date Circulated
Date Added
06/04/2007
06/05/2007
Source Summary flac16; Recording by Matt Field. Source: FOB Nak 100's > D-5 > D-5 > Maxell UDXL I cassettes. Transfer and Mastering: Cassette (1st Gen) playback on Nakamichi CR-7A, azimuth adjusted, no Dolby > Grace Lunatec V3, sample rate at 96 KHz > AES digital connection > LynxTwo soundcard in E6400 dual core processor-based PC > HD as 24 bit/96 KHz WAV > Ozone 3.0 > MBIT+ dithering to 16/44.1 KHz WAV > CDWAV 1.9 (tracking) > FLAC (level 8). Recording, editing and mastering with Wavelab 5.0. Transfer and mastering by Chris L. 
  Archive
Source Information - Download Text | Download Zip
Grateful Dead - 12/31/1981
Oakland Auditorium
Oakland, CA

Source:  FOB Nak 100's > D-5 > D-5 > Maxell UDXL I cassettes.
Taped by Matt Field.  Tape archived and provided for transfer by B.Koucky.
Transfer and Mastering:
Cassette (1st Gen) playback on Nakamichi CR-7A, azimuth adjusted, no Dolby > Grace Lunatec V3, sample rate at 96 KHz > AES digital connection > LynxTwo soundcard in E6400 dual core processor-based PC > HD as 24 bit/96 KHz WAV > Ozone 3.0 > MBIT+ dithering to 16/44.1 KHz WAV > CDWAV 1.9 (tracking) > FLAC (level 8).   Recording, editing and mastering with Wavelab 5.0.  Transfer and mastering by Chris L.  
Seeded by the Green Mountain Bros. at bt.etree.org, June 2007.

*Missing tracks crossfaded from C.Miller/D.Gans SBD recording.

Set I
d1t01 - Shakedown Street
d1t02 - Me and My Uncle >
d1t03 - Mexicali Blues
d1t04 - Cold Rain and Snow
d1t05 - C.C. Rider
d1t06 - It Must Have Been The Roses >
d1t07 - Beat It On Down The Line
d1t08 - Big Boss Man >
d1t09 - New Minglewood Blues
d1t10 - Don't Ease Me In

Set II
d2t01 - part of pre-countdown banter > Iko Iko
d2t02 - Playing In The Band >
d2t03 - Terrapin Station >
d2t04 - Playing In The Band >
d2t05 - Drums >
d3t01 - Space >
d3t02 - The Other One >
d3t03 - Not Fade Away >
d3t04 - Goin' Down The Road Feeling Bad >
d3t05 - Morning Dew

Set III
d3t06 - Dark Star >
d3t07 - Bertha >
d3t08 - Good Lovin'

Encore:
d3t09 - It's All Over Now, Baby Blue

SHNTOOL LEN OUTPUT:
    length     expanded size   cdr  WAVE problems filename
    15:25.69      163332332    ---   --   ---xx   gd1981-12-31d1t01.flac
    3:00.71       31919036    ---   --   ---xx   gd1981-12-31d1t02.flac
     4:40.16       49429676    ---   --   ---xx   gd1981-12-31d1t03.flac
     6:20.41       67128476    ---   --   ---xx   gd1981-12-31d1t04.flac
     9:01.17       95472428    ---   --   ---xx   gd1981-12-31d1t05.flac
     6:24.40       67831724    ---   --   ---xx   gd1981-12-31d1t06.flac
     4:20.21       45913436    ---   --   ---xx   gd1981-12-31d1t07.flac
     6:01.45       63786284    ---   --   ---xx   gd1981-12-31d1t08.flac
     6:11.52       65566748    ---   --   ---xx   gd1981-12-31d1t09.flac
     3:20.52       35402348    ---   --   ---xx   gd1981-12-31d1t10.flac
     7:31.25       79615244    ---   --   ---xx   gd1981-12-31d2t01.flac
    14:48.41      156739676    ---   --   ---xx   gd1981-12-31d2t02.flac
    14:39.26      155116796    ---   --   ---xx   gd1981-12-31d2t03.flac
     2:27.62       26076668    ---   --   ---xx   gd1981-12-31d2t04.flac
     5:46.44       61137932    ---   --   ---xx   gd1981-12-31d2t05.flac
     6:38.21       70256636    ---   --   ---xx   gd1981-12-31d3t01.flac
     5:37.49       59562092    ---   --   ---xx   gd1981-12-31d3t02.flac
     7:19.16       77477276    ---   --   ---xx   gd1981-12-31d3t03.flac
     7:28.20       79074284    ---   --   ---xx   gd1981-12-31d3t04.flac
    10:56.62      115864268    ---   --   ---xx   gd1981-12-31d3t05.flac
    14:52.72      157518188    ---   --   ---xx   gd1981-12-31d3t06.flac
     6:23.55       67690604    ---   --   ---xx   gd1981-12-31d3t07.flac
     9:54.16      104819276    ---   --   ---xx   gd1981-12-31d3t08.flac
     7:03.14       74650172    ---   --   ---xx   gd1981-12-31d3t09.flac
   186:15.47     1971381600 B                     (totals for 24 files, 0.5737 overall compression ratio)
Show Checksums
ffp
gd1981-12-31d1t01.flac:442bf13c1f07b091a56d3d1a443ec1c5
gd1981-12-31d1t02.flac:61c71cdc031c1a9173a71d1904edf76d
gd1981-12-31d1t03.flac:cd96b52143941fe0cdd1c14b50a248f5
gd1981-12-31d1t04.flac:aac2a1842faf973633c9acaf2c40a3a7
gd1981-12-31d1t05.flac:32d43bd4588236f3862d17fb4cd1f455
gd1981-12-31d1t06.flac:30f604184c2e86a02929024288c2f768
gd1981-12-31d1t07.flac:b242c6db2c708c16090b5475cef27128
gd1981-12-31d1t08.flac:e18aa11f5e9163c30fd8860836e1329b
gd1981-12-31d1t09.flac:9f217e9855e8945ec08a0cccd64b8ceb
gd1981-12-31d1t10.flac:e4ab399f43d429a00800adc89130d308
gd1981-12-31d2t01.flac:e55b9aae3d39ed219edfd2e090ad2cee
gd1981-12-31d2t02.flac:8143d0174f03f01dadf068b51c632def
gd1981-12-31d2t03.flac:479b07b6130847eb14871810c4db09fd
gd1981-12-31d2t04.flac:efce692470a482c57134a799a8804388
gd1981-12-31d2t05.flac:9392ee4214c4b2cafbe4fc337f0719fd
gd1981-12-31d3t01.flac:da21b3d3a2aacfc439f78e6f6cc4783e
gd1981-12-31d3t02.flac:9217f61ef40e0ba6164c7b7044cac479
gd1981-12-31d3t03.flac:0058138ad35bbd81edcc94e46b89cfdd
gd1981-12-31d3t04.flac:729a07d7ebdb526956487253fb4dfd71
gd1981-12-31d3t05.flac:d4bb228aebf2b8f448e6e8a7e5437d59
gd1981-12-31d3t06.flac:32974747fc1fd4283b949fd1abb5495d
gd1981-12-31d3t07.flac:7599a682d2245bb5e208c8af86801769
gd1981-12-31d3t08.flac:6a4b2e37002fcd4bb0c9018da82778f3
gd1981-12-31d3t09.flac:57c65ae887dbb9f6c9776d9cef6b57a5
flac-md5
b615da87fe0d7468334e2d01285a66ae *gd1981-12-31d1t01.flac
906de5b2bee90293774e120d6638da3e *gd1981-12-31d1t02.flac
fbc5236f5888ccb749f91612ab3303c3 *gd1981-12-31d1t03.flac
10a887d3be5072c7d1372ab127ed6d16 *gd1981-12-31d1t04.flac
acad29e0a7c14e4ce069c2aa770907de *gd1981-12-31d1t05.flac
8fc1c0fe30428ae4a3993f9f9cb10a8e *gd1981-12-31d1t06.flac
af8bd6f98daf728a2196e2cd4618b09d *gd1981-12-31d1t07.flac
d3cea6ec252b11acad664a5560dda8c9 *gd1981-12-31d1t08.flac
58c8e09a3c6398656e9f366801503185 *gd1981-12-31d1t09.flac
c393f62281622136b0d98bcf5156680d *gd1981-12-31d1t10.flac
baf5a53f77facecfce7bd3b44f75e17f *gd1981-12-31d2t01.flac
8c3207da62cd273f4d756c6151ea6de5 *gd1981-12-31d2t02.flac
e06230160c29d25fbaa56236d9f0491b *gd1981-12-31d2t03.flac
48f4755766902b5b8185db10586c2214 *gd1981-12-31d2t04.flac
d2d4a5e8ea3d7c9438af1d431616c60e *gd1981-12-31d2t05.flac
2501d7926fcc09501e7f89d30d7738af *gd1981-12-31d3t01.flac
318fe7db2c7dcd3d51373a29782b04cb *gd1981-12-31d3t02.flac
5416d55f37f502b3ea200e22be2d328e *gd1981-12-31d3t03.flac
727a2932067af74b8007a0537dacafb5 *gd1981-12-31d3t04.flac
866d5e114d597c4c799359086f9e515a *gd1981-12-31d3t05.flac
fb6c7f83d299a27011f3f37d102bc87d *gd1981-12-31d3t06.flac
753c4e5727e7ba52d4e5ec6d498137a1 *gd1981-12-31d3t07.flac
3f62a08ae77989568b0ef002b37cabd2 *gd1981-12-31d3t08.flac
28c7b7dd7118191bdd2f54b672ea30a1 *gd1981-12-31d3t09.flac

Comments
Add Comment
Other Sources (comments)
Reels > Cass > Dat > CDR;... (1) electric sets; Monitor... (4) Jay Ashley (Bertha)... (14) Acoustic set only (w/ Joan... (0) Master... (1) flac16; SBD>... (0) flac16; Recording... (0) flac24; Recording... (0) flac16; Recording... (0) flac24; Recording... (0) flac16; Lineage: Nak... (0) flac16; Matrix 3... (0)
Date User Comment