Browse Collections Artists Sources   Search Dates

Add Show    List Management    Help


Gov't Mule 04/20/07
Soul Kitchen, Mobile, AL
Comments Add Comment    Source Collectors    Add to Collection    Add to Want List    History
Source # 85655 Other Sources
Entered by
Checksums flac.ffp
Disc Counts 2 / 2
Media Size
Date Circulated
Date Added
04/22/07
06/05/2007
Source Summary Source: AKG c460b/ck63(DIN)>D mod UA-5>H120
Location: DFC, FOB
Transfer: H120>USB>CdWave>FLAC 
Source Information - Download Text | Download Zip
Gov't Mule
2007-04-20
Soul Kitchen
Mobile, AL

Source: AKG c460b/ck63(DIN)>D mod UA-5>H120
Location: DFC, FOB
Transfer: H120>USB>CdWave>FLAC
Taper: jkbyram

Show was 2 sets

Set 1
Disc 1

01. Blind Man In the Dark
02. Mr. High & Mighty
03. Lay Your Burden Down
04. Streamline Woman
05. Mother Earth
06. Devil Likes It Slow
07. I Think you Know What I Mean>
08. When the Levee Breaks> I Think
09. Slackjaw Jezabel
10. Soulshine

Set 2
Disc 2

01. It Hurts Me Too
02. A Million Miles From Yesterday
03. Long As I Can see The Light
04. Lively Up Yourself>
05. Drums
06. Unring the Bell*
07. Mr. Man
08. Brand New Angel
09. crowd
ENCORE
10. Simple Man

Notes:
* Shakedown Tease

    length     expanded size   cdr  WAVE problems filename
    10:02.48      106305740    ---   --   -----   mule2007-04-20d1t01.wav
     5:48.33       61464860    ---   --   -----   mule2007-04-20d1t02.wav
     5:45.40       60952124    ---   --   -----   mule2007-04-20d1t03.wav
     4:07.49       43686092    ---   --   -----   mule2007-04-20d1t04.wav
    11:04.36      117214316    ---   --   -----   mule2007-04-20d1t05.wav
    12:54.64      136684172    ---   --   -----   mule2007-04-20d1t06.wav
     6:01.68       63840380    ---   --   -----   mule2007-04-20d1t07.wav
     3:52.11       40950716    ---   --   -----   mule2007-04-20d1t08.wav
     7:06.00       75146444    ---   --   -----   mule2007-04-20d1t09.wav
     8:00.23       84726140    ---   --   -----   mule2007-04-20d1t10.wav
     9:04.31       96034556    ---   --   -----   mule2007-04-20d2t01.wav
     4:25.72       46915388    ---   --   -----   mule2007-04-20d2t02.wav
     3:44.18       39555980    ---   --   -----   mule2007-04-20d2t03.wav
    10:59.01      116249996    ---   --   -----   mule2007-04-20d2t04.wav
    10:42.70      113413484    ---   --   -----   mule2007-04-20d2t05.wav
     9:49.09      103920812    ---   --   -----   mule2007-04-20d2t06.wav
     4:10.47       44210588    ---   --   -----   mule2007-04-20d2t07.wav
     8:11.20       86659484    ---   --   -----   mule2007-04-20d2t08.wav
     3:12.33       33946460    ---   --   -----   mule2007-04-20d2t09.wav
     9:45.34      103274012    ---   --   -----   mule2007-04-20d2t10.wav
   148:49.32     1575151744 B                     (totals for 20 files, 1.0000 overall compression ratio)
Show Checksums
flac.ffp
mule2007-04-20d1t01.flac:7dd410551063df5395a01660299cb78e
mule2007-04-20d1t02.flac:43ffba8bb9c9ccad70efb798d63a2296
mule2007-04-20d1t03.flac:05df92f28d2c95c4cedd8e69277dc61e
mule2007-04-20d1t04.flac:685f2e6b47d77c90adbc2d8483d73413
mule2007-04-20d1t05.flac:8d0da49471f856d38c6005944293cbb6
mule2007-04-20d1t06.flac:adba77a6faed820e8fc8a6632ea3a732
mule2007-04-20d1t07.flac:558f2db433c3b2d179fe2c934f0ba6b1
mule2007-04-20d1t08.flac:784ea0d2ea40712adf524ef1b16d044f
mule2007-04-20d1t09.flac:6a3e97f0c16b42043141e5c5357a2ae3
mule2007-04-20d1t10.flac:5ffaa191531aa1f9bbdb6d48194047d9
mule2007-04-20d2t01.flac:502948eaad17a0dcaa68f14615367ac5
mule2007-04-20d2t02.flac:94c5eb19152201a956fda698bd6ba17f
mule2007-04-20d2t03.flac:259cf94106fd82bc5d11ee821bd7b3c0
mule2007-04-20d2t04.flac:0b6fdee0e433866dd6b685bc376e633e
mule2007-04-20d2t05.flac:7b87c895ab08dedf5668ac982e845364
mule2007-04-20d2t06.flac:66f9c76342153740621050efc83fa479
mule2007-04-20d2t07.flac:8c51107e183e3adb9ea2a07c7893dba1
mule2007-04-20d2t08.flac:1267bbaff6fc48ec3b9beeea9faf24f2
mule2007-04-20d2t09.flac:8c5153f5fea738d6974e6bd5bdfdcd7e
mule2007-04-20d2t10.flac:4e5380b98138cbb0538c3ca92168c46f

Comments
Add Comment
Other Sources (comments)
Source: Schoeps... (0)
Date User Comment