Browse Collections Artists Sources   Search Dates

Add Show    List Management    Help


Phil Lesh & Friends 06/03/07
Hunter Mountain, Hunter, NY
Comments Add Comment    Source Collectors    Add to Collection    Add to Want List    History
Source # 85784 Other Sources
Entered by Matt Vernon
Checksums ffp , flac-md5
Disc Counts 2 / 3
Media Size
Date Circulated
Date Added
06/11/2007
06/12/2007
Source Summary Source: Nakamichi 100 shotguns (X2)> Sony SBM-1 > Sony M1 @ 48/16 Transfer: Tascam DA-P1 > Coax Out > RCA CDRW XXX . Extracted via xACT v1.4b24 > HD > Peak 5.0 (Tracking), > xACT v1.4b24 (fix SBE, convert to flac level 7, generate checksums, verify). Taped/Transfered by The Big Red Bag / Bold Captain  
  Archive
Source Information - Download Text | Download Zip
Phil & Friends
June 3,  2007
Mountain Jam
Hunter Mountain Ski Area
Hunter, NY

Source:  Nakamichi 100 shotguns (X2)> Sony SBM-1 > Sony M1 @ 48/16
        
Transfer:  Tascam DA-P1 > Coax Out > RCA CDRW XXX . Extracted via xACT v1.4b24 > HD > Peak 5.0 (Tracking), > xACT v1.4b24 (fix SBE, convert to flac level 7, generate checksums, verify).

Taped/Transfered by The Big Red Bag / Bold Captain

Disc 1 (set 1):
01.  Tuning ->
02.  Shakedown Street ->
03.  Friend of the Devil ->
04.  Althea
05.  Low Spark of High Healed Boys
06.  New Speedway Boogie
07.  Mason's Children

Disc 2 (set 1 cont.):
01.  Candyman
02.  Scarlet Begonias ->
03.  Eyes of the World ->
04.  Fire on the Mountain

Disc 3 (set 2):
01.  Unbroken Chain
02.  Dark Star ->
03.  Mountains of the Moon ->
04.  Dark Star ->
05.  Lucy in the Sky with Diamonds
06.  Lovelight
07.  Donor Rap
08.  Not Fade Away

Notes: Classic nak sound from the OTS. The system was tuned and there where no bad pulls this day. Well worth the D/l, imho.

len output aiff
    length     expanded size   cdr  WAVE problems filename
     2:08.41       22675676    ---   --   ---xx   pnf2007-6-3d1t01.aiff
    13:37.21      144168236    ---   --   ---xx   pnf2007-6-3d1t02.aiff
    12:21.44      130815932    ---   --   ---xx   pnf2007-6-3d1t03.aiff
    10:57.70      116059484    ---   --   ---xx   pnf2007-6-3d1t04.aiff
    18:41.25      197803244    ---   --   ---xx   pnf2007-6-3d1t05.aiff
    11:17.28      119488700    ---   --   ---xx   pnf2007-6-3d1t06.aiff
     9:33.38      101166620    ---   --   ---xx   pnf2007-6-3d1t07.aiff
     7:15.48       76846940    ---   --   ---xx   pnf2007-6-3d2t01.aiff
    10:21.36      109629116    ---   --   ---xx   pnf2007-6-3d2t02.aiff
    13:42.12      145029068    ---   --   ---xx   pnf2007-6-3d2t03.aiff
    11:32.32      122144108    ---   --   ---xx   pnf2007-6-3d2t04.aiff
    14:31.72      153813788    ---   --   ---xx   pnf2007-6-3d3t01.aiff
    10:28.73      110950940    ---   --   ---xx   pnf2007-6-3d3t02.aiff
     9:30.16      100585676    ---   --   ---xx   pnf2007-6-3d3t03.aiff
    10:01.18      106058780    ---   --   ---xx   pnf2007-6-3d3t04.aiff
     4:13.60       44770364    ---   --   ---xx   pnf2007-6-3d3t05.aiff
     7:54.31       83686556    ---   --   ---xx   pnf2007-6-3d3t06.aiff
     4:50.49       51271292    ---   --   ---xx   pnf2007-6-3d3t07.aiff
    10:36.68      112350380    ---   --   ---xx   pnf2007-6-3d3t08.aiff
   193:37.32     2049314900 B                     (totals for 19 files, 1.0000 overall compression ratio)

md5
50966586f121d77286d2d4d8f4391d64  [shntool]  pnf2007-6-3d1t01.flac
ae31d56c610d0a1d0ab5413cdf2fe848  [shntool]  pnf2007-6-3d1t02.flac
c423b4d4c3d5e5787419b7fc82c9d196  [shntool]  pnf2007-6-3d1t03.flac
2dce0005d8bbaf1aee2ac38cf8e1d6ca  [shntool]  pnf2007-6-3d1t04.flac
bbe055826120a1151ccce549d23469f2  [shntool]  pnf2007-6-3d1t05.flac
b795cd87fa41b97eb7e37fbcf866904b  [shntool]  pnf2007-6-3d1t06.flac
e1780e314bcdc41445641f61189a0891  [shntool]  pnf2007-6-3d1t07.flac
ea0e48b9f663a5ee7d6f442209a56c2b  [shntool]  pnf2007-6-3d2t01.flac
f22162ae3a8a0119852668f6b29a0df3  [shntool]  pnf2007-6-3d2t02.flac
8d942187ef457ed2cf3ff2218e9b55a2  [shntool]  pnf2007-6-3d2t03.flac
7674acdd9888d32885551c5dcc83cb3f  [shntool]  pnf2007-6-3d2t04.flac
5765015785dea4ad21b46c8759ce5ec0  [shntool]  pnf2007-6-3d3t01.flac
3f22fa8a378be436194d40a6c670a698  [shntool]  pnf2007-6-3d3t02.flac
3b5ef4efce15b621c5b08256ffc83499  [shntool]  pnf2007-6-3d3t03.flac
4d7fa8d7728ec51a79595762ce0341ac  [shntool]  pnf2007-6-3d3t04.flac
585b0c343be5ca2337433593fc14749a  [shntool]  pnf2007-6-3d3t05.flac
d3d1fb737c038395c2271854f9fa7b48  [shntool]  pnf2007-6-3d3t06.flac
27a91e158ec9b81e3186d184692a0215  [shntool]  pnf2007-6-3d3t07.flac
0a94d311b5f83203209675568371d3d5  [shntool]  pnf2007-6-3d3t08.flac
Show Checksums
ffp
pnf2007-6-3d1t01.flac:50966586f121d77286d2d4d8f4391d64
pnf2007-6-3d1t02.flac:ae31d56c610d0a1d0ab5413cdf2fe848
pnf2007-6-3d1t03.flac:c423b4d4c3d5e5787419b7fc82c9d196
pnf2007-6-3d1t04.flac:2dce0005d8bbaf1aee2ac38cf8e1d6ca
pnf2007-6-3d1t05.flac:bbe055826120a1151ccce549d23469f2
pnf2007-6-3d1t06.flac:b795cd87fa41b97eb7e37fbcf866904b
pnf2007-6-3d1t07.flac:e1780e314bcdc41445641f61189a0891
pnf2007-6-3d2t01.flac:ea0e48b9f663a5ee7d6f442209a56c2b
pnf2007-6-3d2t02.flac:f22162ae3a8a0119852668f6b29a0df3
pnf2007-6-3d2t03.flac:8d942187ef457ed2cf3ff2218e9b55a2
pnf2007-6-3d2t04.flac:7674acdd9888d32885551c5dcc83cb3f
pnf2007-6-3d3t01.flac:5765015785dea4ad21b46c8759ce5ec0
pnf2007-6-3d3t02.flac:3f22fa8a378be436194d40a6c670a698
pnf2007-6-3d3t03.flac:3b5ef4efce15b621c5b08256ffc83499
pnf2007-6-3d3t04.flac:4d7fa8d7728ec51a79595762ce0341ac
pnf2007-6-3d3t05.flac:585b0c343be5ca2337433593fc14749a
pnf2007-6-3d3t06.flac:d3d1fb737c038395c2271854f9fa7b48
pnf2007-6-3d3t07.flac:27a91e158ec9b81e3186d184692a0215
pnf2007-6-3d3t08.flac:0a94d311b5f83203209675568371d3d5
flac-md5
9156eddedfb707c4997d373f69f9f8ee *pnf2007-6-3d1t01.flac
8e94b085971ac26eeeba9a1d15afc860 *pnf2007-6-3d1t02.flac
05e674034561c317ed7ebd23a8b9914f *pnf2007-6-3d1t03.flac
e75057f6b5902601a967db81a454cf0b *pnf2007-6-3d1t04.flac
724a859fc85de33d0f243896397fb875 *pnf2007-6-3d1t05.flac
81eda08b193bddc2c557173e08c5a1e4 *pnf2007-6-3d1t06.flac
dca03e5fbec2e6a725c13a77443c40e1 *pnf2007-6-3d1t07.flac
069858330875c96954611eb0c0345a04 *pnf2007-6-3d2t01.flac
10e7989ba57cf2282f2e6af07202ef88 *pnf2007-6-3d2t02.flac
45e0726f8d7264418c112832b1dae755 *pnf2007-6-3d2t03.flac
995c832b28f510a645362b0f89d237f0 *pnf2007-6-3d2t04.flac
2a35e3fd6de2be82646e9e83d7378749 *pnf2007-6-3d3t01.flac
b3a0eeb976444f02fc70bb3ee224f582 *pnf2007-6-3d3t02.flac
1640f5fe6155610b540bfc981b05c852 *pnf2007-6-3d3t03.flac
c362cb33eb78c7891538b2559bfc440a *pnf2007-6-3d3t04.flac
d54b79f950e1941007fa00f33269bf30 *pnf2007-6-3d3t05.flac
cf7c5108cf8f53ad096e9eabc002e6f6 *pnf2007-6-3d3t06.flac
4e42731a78789195852f0630c7e6a97c *pnf2007-6-3d3t07.flac
e0bd18adad824caf4e83f35636858614 *pnf2007-6-3d3t08.flac

Comments
Add Comment
Other Sources (comments)
Source: Neumann km184> v2>... (0) Source: JWmod AKG... (0) **24-bit** Source: schoeps... (0) Recordist : Tim Burke... (0) Source: 2- Sennheiser... (0) 24bit Schoeps mk41v (dina,... (0) source: schoeps mk4 (ortf @... (0) Schoeps mk41v (dina, fob) >... (0) Source: Milab VM44 Link ->... (0) Source: Schoeps mk21 (NOS)>... (0) ***24 bit*** Source:... (0) source: Neumann km184> v2>... (1)
Date User Comment