Browse Collections Artists Sources   Search Dates

Add Show    List Management    Help


Gov't Mule 05/01/07
Cotillion Ballroom, Wichita, KS
Comments Add Comment    Source Collectors    Add to Collection    Add to Want List    History
Source # 85849 Other Sources
Entered by
Checksums ffp
Disc Counts 2 / 2
Media Size
Date Circulated
Date Added

06/15/2007
Source Summary AKG 480/ck61> Lunatec V3 (24b-48khz)> MT2496; Conversion: Wavelab5.0 (fades/EQ/L2/resample/dither) 16b-44.1khz >.flac (flacfrontend) 
Source Information - Download Text | Download Zip
Gov't Mule
May 1st 2007
The Cotillion
Wichita, KS


Source: AKG 480/ck61> Lunatec V3 (24b-48khz)> MT2496
Conversion: Wavelab5.0 (fades/EQ/L2/resample/dither) 16b-44.1khz >.flac (flacfrontend)
Source/Conversion: [email protected] www.FlacMusic.com
Notes: **24bit version available at www.FlacMusic.com**

Disc 1
Set 1:
01. [06:54] Hammer and Nails
02. [06:28] The Banks of the Deep End
03. [05:56] Empty Pages
04. [07:20] Larger Than Life
05. [07:03] Nothing Again
06. [06:51] That's What Love Will Make You Do
07. [05:54] King's Highway
08. [06:37] Brighter Days
09. [06:41] Wandering Child

Disc 2
Set 2:
01. [03:48] Bad Little Doggie
02. [06:45] Lola Leave Your Light On
03. [07:36] Lay Your Burden Down
04. [05:51] Smokestack Lightning
05. [05:25] Mr. High and Mighty
06. [09:08] Drums
07. [06:11] Slow Happy Boys
08. [04:36] I Believe To My Soul
09. [12:20] Mule
Encore:
10. [06:54] Fool's Moon
11. [09:40] Goin' Out West

govtmule2007d2t11.flac:e705b503031a8fed05ccc620c95b782c
govtmule2007d1t01.flac:8fc5f5b985a035821c05ca496c5e315a
govtmule2007d1t02.flac:0d81952669b1e4759f273f4b1e103721
govtmule2007d1t03.flac:c6989c4dab309a788613ae5422ee46b6
govtmule2007d1t04.flac:27a0c2c1ee14872fa00c73cf55cd92e6
govtmule2007d1t05.flac:6437a09d96a32de4830348659e600d74
govtmule2007d1t06.flac:c65300f1587b04fc3d49befd0eac8c5e
govtmule2007d1t07.flac:78eae74edae569e9657578140295f986
govtmule2007d1t08.flac:2d992d9d32fdebb6787eb6607d5ee4a2
govtmule2007d1t09.flac:28878d8f4a591fe67790d182e3a00095
govtmule2007d2t01.flac:b3e5ba9e5d67a99d24ab58a8fc33004f
govtmule2007d2t02.flac:2f879fc674d2ae504045eea515eb8d64
govtmule2007d2t03.flac:944bb7199f177f945b99e4757943cd77
govtmule2007d2t04.flac:daff0defa990a62cca7c28cc100a9f5e
govtmule2007d2t05.flac:f1368683f9dd3f423416f13297e882a8
govtmule2007d2t06.flac:f6c40d16a2b38ff92eee0d5a31d36c2d
govtmule2007d2t07.flac:39277d997e714ab8c4d6885111e22546
govtmule2007d2t08.flac:e9463976662db0d7acc1fad292f3ff78
govtmule2007d2t09.flac:edc46e33c871d4c8202f1262c39b336b
govtmule2007d2t10.flac:1823e31fff3f7601394b6477b35d7eb0

    length     expanded size   cdr  WAVE problems filename
     6:54.65       73182524    ---   --   ---xx   govtmule2007-05-01d1t01.flac
     6:28.52       68565548    ---   --   ---xx   govtmule2007-05-01d1t02.flac
     5:56.25       62857244    ---   --   ---xx   govtmule2007-05-01d1t03.flac
     7:20.30       77686604    ---   --   ---xx   govtmule2007-05-01d1t04.flac
     7:03.59       74756012    ---   --   ---xx   govtmule2007-05-01d1t05.flac
     6:51.09       72521612    ---   --   ---xx   govtmule2007-05-01d1t06.flac
     5:54.06       62459756    ---   --   ---xx   govtmule2007-05-01d1t07.flac
     6:37.59       70169612    ---   --   ---xx   govtmule2007-05-01d1t08.flac
     6:41.05       70748204    ---   --   ---xx   govtmule2007-05-01d1t09.flac
     3:48.61       40362716    ---   --   ---xx   govtmule2007-05-01d2t01.flac
     6:45.05       71453804    ---   --   ---xx   govtmule2007-05-01d2t02.flac
     7:36.13       80469020    ---   --   ---xx   govtmule2007-05-01d2t03.flac
     5:51.39       62008172    ---   --   ---xx   govtmule2007-05-01d2t04.flac
     5:25.09       57351212    ---   --   ---xx   govtmule2007-05-01d2t05.flac
     9:08.47       96777788    ---   --   ---xx   govtmule2007-05-01d2t06.flac
     6:11.04       65453852    ---   --   ---xx   govtmule2007-05-01d2t07.flac
     4:36.52       48808748    ---   --   ---xx   govtmule2007-05-01d2t08.flac
    12:20.58      130672460    ---   --   ---xx   govtmule2007-05-01d2t09.flac
     6:54.41       73126076    ---   --   ---xx   govtmule2007-05-01d2t10.flac
     9:40.66      102467276    ---   --   ---xx   govtmule2007-05-01d2t11.flac
   138:07.30     1461898240 B                     (totals for 20 files, 0.5887 overall compression ratio)
Show Checksums
ffp
govtmule2007-05-01d1t01.flac:8fc5f5b985a035821c05ca496c5e315a
govtmule2007-05-01d1t02.flac:0d81952669b1e4759f273f4b1e103721
govtmule2007-05-01d1t03.flac:c6989c4dab309a788613ae5422ee46b6
govtmule2007-05-01d1t04.flac:27a0c2c1ee14872fa00c73cf55cd92e6
govtmule2007-05-01d1t05.flac:6437a09d96a32de4830348659e600d74
govtmule2007-05-01d1t06.flac:c65300f1587b04fc3d49befd0eac8c5e
govtmule2007-05-01d1t07.flac:78eae74edae569e9657578140295f986
govtmule2007-05-01d1t08.flac:2d992d9d32fdebb6787eb6607d5ee4a2
govtmule2007-05-01d1t09.flac:28878d8f4a591fe67790d182e3a00095
govtmule2007-05-01d2t01.flac:b3e5ba9e5d67a99d24ab58a8fc33004f
govtmule2007-05-01d2t02.flac:2f879fc674d2ae504045eea515eb8d64
govtmule2007-05-01d2t03.flac:944bb7199f177f945b99e4757943cd77
govtmule2007-05-01d2t04.flac:daff0defa990a62cca7c28cc100a9f5e
govtmule2007-05-01d2t05.flac:f1368683f9dd3f423416f13297e882a8
govtmule2007-05-01d2t06.flac:f6c40d16a2b38ff92eee0d5a31d36c2d
govtmule2007-05-01d2t07.flac:39277d997e714ab8c4d6885111e22546
govtmule2007-05-01d2t08.flac:e9463976662db0d7acc1fad292f3ff78
govtmule2007-05-01d2t09.flac:edc46e33c871d4c8202f1262c39b336b
govtmule2007-05-01d2t10.flac:1823e31fff3f7601394b6477b35d7eb0
govtmule2007-05-01d2t11.flac:e705b503031a8fed05ccc620c95b782c

Comments
Add Comment
Date User Comment