Browse Collections Artists Sources   Search Dates

Add Show    List Management    Help


Phish 11/28/92
Capitol Theater, Port Chester, NY
Comments Add Comment    Source Collectors    Add to Collection    Add to Want List    History
Source # 85857 Other Sources
Entered by Ben Mohr
Checksums all_ffp , all_wav_md5
Disc Counts 2 / 3
Media Size
Date Circulated
Date Added
06/16/2007
06/16/2007
Source Summary FOB Schoeps mk4 > Reuthelhuber PS > Panasonic SV-255 @48kHz; Tascam DA-20mkII > Tascam HD-P2 > WaveLab 5.01b > r8brain v1.9 (48>44.1kHz) > CDWav > FLAC; Taped by Joe LeClair; Transferred by Jason Sobel 
Source Information - Download Text | Download Zip
Phish
November 28, 1992
Capitol Theatre
Port Chester, NY

source:
(FOB) Schoeps mk4 > Reuthelhuber power supply > Panasonic SV-255 (@ 48 kHz)

transfer:
Tascam DA-20MKII > Tascam HD-P2 > CF card > usb 2.0 > pc > WaveLab 5.01b (fades) > r8brain v1.9 (resample to 44.1 kHz) > CD Wave v1.95.1 > FLAC v1.1.4 (Level 8)

FLAC tags added with metaflac v1.1.4

recorded by Joe LeClair
transferred by Jason Sobel ([email protected])
seeded June 16, 2007

notes:
the 48kHz files from the DAT transfer have been archived, and are available upon request.
Big thanks to Dave Flaschner for letting me borrow his DATs!

Disc 1 - [74:07]
Set I
01 - [05:00] - My Sweet One
02 - [09:44] - Foam
03 - [10:16] - Stash
04 - [10:12] - Esther
05 - [06:46] - Chalk Dust Torture
06 - [03:58] - Sparkle
07 - [05:21] - Fast Enough for You
08 - [02:48] - All Things Reconsidered
09 - [09:23] - Mike's Song >
10 - [03:53] - I Am Hydrogen >
11 - [06:45] - Weekapaug Groove

Disc 2 - [44:33]
Set II
01 - [05:53] - Suzy Greenberg
02 - [03:45] - Paul and Silas
03 - [12:42] - Tweezer ->
04 - [04:01] - The Man Who Stepped Into Yesterday >
05 - [03:10] - Avenu Malkenu ->
06 - [09:53] - Maze
07 - [01:31] - The Man Who Stepped Into Yesterday
08 - [03:39] - Bouncing Around the Room

Disc 3 - [49:08]
Set II continued
01 - [08:31] - The Squirming Coil
02 - [08:25] - Terrapin >
03 - [01:16] - HYHU
04 - [13:40] - Harpua
05 - [04:35] - Golgi Apparatus
06 - [01:33] - encore break
07 - [07:27] - Contact * ->
08 - [03:41] - Tweezer Reprise

* played for Trey's Grandma

---------------------------------------------------------------------------------------------------

SHNtool output

    length     expanded size   cdr  WAVE problems filename
     5:00.37       53007068    ---   --   ---xx   ph1992-11-28d1t01.flac
     9:44.04      103027052    ---   --   ---xx   ph1992-11-28d1t02.flac
    10:16.17      108702428    ---   --   ---xx   ph1992-11-28d1t03.flac
    10:12.31      108029756    ---   --   ---xx   ph1992-11-28d1t04.flac
     6:46.04       71627852    ---   --   ---xx   ph1992-11-28d1t05.flac
     3:57.48       41919740    ---   --   ---xx   ph1992-11-28d1t06.flac
     5:20.52       56570348    ---   --   ---xx   ph1992-11-28d1t07.flac
     2:47.61       29602316    ---   --   ---xx   ph1992-11-28d1t08.flac
     9:22.56       99268556    ---   --   ---xx   ph1992-11-28d1t09.flac
     3:53.37       41188268    ---   --   ---xx   ph1992-11-28d1t10.flac
     6:45.28       71507900    ---   --   ---xx   ph1992-11-28d1t11.flac
     5:53.07       62285708    ---   --   ---xx   ph1992-11-28d2t01.flac
     3:44.74       39687692    ---   --   ---xx   ph1992-11-28d2t02.flac
    12:42.11      134442716    ---   --   ---xx   ph1992-11-28d2t03.flac
     4:00.41       42432476    ---   --   ---xx   ph1992-11-28d2t04.flac
     3:09.60       33480764    ---   --   ---xx   ph1992-11-28d2t05.flac
     9:52.74      104602892    ---   --   ---xx   ph1992-11-28d2t06.flac
     1:30.47       15986588    ---   --   ---xx   ph1992-11-28d2t07.flac
     3:38.48       38568140    ---   --   ---xx   ph1992-11-28d2t08.flac
     8:31.18       90182780    ---   --   ---xx   ph1992-11-28d3t01.flac
     8:25.11       89107916    ---   --   ---xx   ph1992-11-28d3t02.flac
     1:15.61       13373516    ---   --   ---xx   ph1992-11-28d3t03.flac
    13:40.25      144706844    ---   --   ---xx   ph1992-11-28d3t04.flac
     4:34.57       48467708    ---   --   ---xx   ph1992-11-28d3t05.flac
     1:32.72       16398188    ---   --   ---xx   ph1992-11-28d3t06.flac
     7:26.73       78846140    ---   --   ---xx   ph1992-11-28d3t07.flac
     3:40.71       38975036    ---   --   ---xx   ph1992-11-28d3t08.flac
   167:48.00     1775996388 B                     (totals for 27 files, 0.5556 overall compression ratio)

Show Checksums
all_ffp
ph1992-11-28d1t01.flac:6b433ff12e7d3639291c505c1a213cae
ph1992-11-28d1t02.flac:31e44cf1a1a161621234e7c164f7a116
ph1992-11-28d1t03.flac:03ccb3640dea1966c675dbf7196b2cda
ph1992-11-28d1t04.flac:51ab5da6b7bdfbe54b03db4e3d53482b
ph1992-11-28d1t05.flac:54d12e68e4a9fc3bb04ed812d59502d2
ph1992-11-28d1t06.flac:e496aa3cd80ecd5b0f6f50ac7bb7a807
ph1992-11-28d1t07.flac:f64f797d896444efdd61133d6aafa010
ph1992-11-28d1t08.flac:406194d0676d6ecd4b0cedae69ce32dd
ph1992-11-28d1t09.flac:2a733c6b8c11bfc465dc22f7abc9fa59
ph1992-11-28d1t10.flac:88db669d87d6b7c5c12fe99397da18a5
ph1992-11-28d1t11.flac:b4b3649b4c60c9b6cc046abc6e16993f
ph1992-11-28d2t01.flac:3c6e1fbb7c7c1f740ef0bf6321cefc69
ph1992-11-28d2t02.flac:b72162103d8df24fcd66b7a3418373c6
ph1992-11-28d2t03.flac:ae345a995d188f675ab78fe8580a921b
ph1992-11-28d2t04.flac:5efd5355c79aa3b9a4a46d3bb9821eca
ph1992-11-28d2t05.flac:30a010fd6dc8d9d91c8e043945667557
ph1992-11-28d2t06.flac:50c21195d0de6060b56a0b4e9730c8f2
ph1992-11-28d2t07.flac:7119c0a3bb7e5e8f121d6719a4ff14ac
ph1992-11-28d2t08.flac:23e470cadebb9313f0588d4a6e1ce262
ph1992-11-28d3t01.flac:9f64f6a9a5c5e27c04f6b556e53b530d
ph1992-11-28d3t02.flac:20b4c7eb0762c52a1f7247320ab1fe61
ph1992-11-28d3t03.flac:2a7df6e2b10f393966370386b812686a
ph1992-11-28d3t04.flac:e36acdd4c1da02893da309324cfb44e3
ph1992-11-28d3t05.flac:7b2cb60aba5f7ccf9af12e4a6a97f3d0
ph1992-11-28d3t06.flac:0f8c5d0b7c593a15ca5322cfd44f7cee
ph1992-11-28d3t07.flac:426dc3d6d529c9f9fa6e8f04ba1d19bc
ph1992-11-28d3t08.flac:82b290cfc666cb18a0ecf3fa9a8a85ff
all_wav_md5
01a55b588c2f1e6e6a31f6bb18dee4c9 *ph1992-11-28d1t01.wav
ab451464bb400357c32b50cb2bae9d67 *ph1992-11-28d1t02.wav
d0d1b6d2975035bfe9ef0d9d325ae169 *ph1992-11-28d1t03.wav
83c8a9dcd721e72cc5871a0a82e372b4 *ph1992-11-28d1t04.wav
d684f3d4fd95a8b089970b1d9bde998f *ph1992-11-28d1t05.wav
814474a46c99d73ee233ffd459e1d1de *ph1992-11-28d1t06.wav
878f6370a97599713a96e48cef866d0e *ph1992-11-28d1t07.wav
16930fab363e9e32133e6c3e2b9d961e *ph1992-11-28d1t08.wav
c82cf0efe70140fb5e23512c0207aaa0 *ph1992-11-28d1t09.wav
2a827d76a84495294c781b9944de1b57 *ph1992-11-28d1t10.wav
5329e41f0ff3b49d9e23829a33b72c7b *ph1992-11-28d1t11.wav
b2f1d25da7ebb37efc70dcad6e19e5ec *ph1992-11-28d2t01.wav
ff48e1d5d2b3b49146472bbf422c2cab *ph1992-11-28d2t02.wav
80597d8bfe65c709d2d8da1dd226a9ee *ph1992-11-28d2t03.wav
de6710ea3c6f88b505a34e1a99b28baa *ph1992-11-28d2t04.wav
46c8cf13c1bd182d4a017683c3120790 *ph1992-11-28d2t05.wav
7f25d420d9337a0f6f5391581380b2de *ph1992-11-28d2t06.wav
b67cd37a610c65e53b357aad43fdd5dd *ph1992-11-28d2t07.wav
7ec55d73804574cef585e3bb32b48bcf *ph1992-11-28d2t08.wav
ea25756e04e60fc594b5d5717d207a24 *ph1992-11-28d3t01.wav
5e5b38f6f758c2b318d1da24c722901e *ph1992-11-28d3t02.wav
35d2719cd6c4965aecd0680805023e64 *ph1992-11-28d3t03.wav
4fdd86601eeb647c59664d9973216dee *ph1992-11-28d3t04.wav
1eddc1c3b3fcae076fa90ebd5fe2f1fd *ph1992-11-28d3t05.wav
cef12a03d82246a63efd969099af463c *ph1992-11-28d3t06.wav
b024f37dc565a76f1d791c273bffe108 *ph1992-11-28d3t07.wav
136cbe1609dcd4dc16be95cbbab765ad *ph1992-11-28d3t08.wav

Comments
Add Comment
Other Sources (comments)
Neumann U87 (additional... (4) Nak 300 > Sony TCD-D3 @... (0) flac16 48kHz Unknown... (0) flac16 Unknown;... (0) flac16 48kHz AKG414... (0)
Date User Comment