Browse Collections Artists Sources   Search Dates

Add Show    List Management    Help


Phish 07/02/95
Sugarbush Summerstage, North Fayston, VT
Comments Add Comment    Source Collectors    Add to Collection    Add to Want List    History
Source # 86094 Other Sources
Entered by Jason Sobel
Checksums FFP , WAV-md5
Disc Counts 2 / 3
Media Size Compressed: 782.18 MB (820175572 bytes)
Date Circulated
Date Added
06/25/2007
06/28/2007
Source Summary flac16; (FOB) AKG 414 > DAT @48kHz; Tascam DA-20mkII > Tascam HD-P2 > r8brain v1.9 (48>44.1kHz) > WaveLab 5.01b > CD Wave > FLAC; Transferred by Jason Sobel 
Source Information - Download Text | Download Zip
Phish
July 2, 1995
Summerstage at Sugarbush North
Fayston, VT

source:
(FOB) AKG 414's > DAT (@ 48 kHz)

transfer:
Tascam DA-20MKII > Tascam HD-P2 > CF card > usb 2.0 > pc > r8brain v1.9 (resample to 44.1 kHz) > WaveLab 5.01b (fades, patch) > CD Wave v1.95.1 > FLAC v1.1.4 (Level 8)

FLAC tags added with metaflac v1.1.4

transferred by Jason Sobel ([email protected])
seeded June 25, 2007

notes:
the 48kHz files from the DAT transfer have been archived, and are available upon request.
Big thanks to Mark Lynn for letting me borrow his DATs!

Disc 1 - [77:41]
Set I
01 - [05:00] - Sample in a Jar >
02 - [17:28] - The Divided Sky
03 - [05:33] - Gumbo
04 - [06:09] - The Curtain >
05 - [09:15] - Julius
06 - [05:18] - Camel Walk
07 - [12:25] - Reba
08 - [03:49] - I Didn't Know
09 - [06:49] - Rift
10 - [05:57] - While My Guitar Gently Weeps

Disc 2 - [57:42]
Set II
01 - [18:38] - Runaway Jim ->
02 - [07:58] - Makisupa Policeman ->
03 - [09:57] - Scent of a Mule
04 - [13:05] - Tweezer >
05 - [01:56] - Ha Ha Ha >
06 - [06:08] - Sleeping Monkey

Disc 3 - [23:45]
Set II continued
01 - [03:47] - Acoustic Army
02 - [10:58] - Slave to the Traffic Light
03 - [00:48] - encore break
04 - [05:11] - Halley's Comet >
05 - [03:02] - Tweezer Reprise

show notes:
This was a benefit show for the King Street Youth Center.
The band brought back Camel Walk, which hadn't been played since February 24, 1989 (648 shows).

technical notes:
on the DAT, there were two very minor drop-outs, and there was a cut in the encore break
The drop-outs were at the following locations:
in Julius [06:38.2] to [06:38.6]
in encore break [00:05.5] to [00:05.6]

the drop-out in Julius was patched with the circulating B&K 4011 source:
http://db.etree.org/shn/616

the drop-out and the cut in the encore break were left as-is,
because they are so minor and do not affect any of the music.

-----------------------------------------------------------------------------------------------

SHNtool output

    length     expanded size   cdr  WAVE problems filename
     4:59.55       52873004    ---   --   ---xx   ph1995-07-02d1t01.flac
    17:27.74      184864892    ---   --   ---xx   ph1995-07-02d1t02.flac
     5:32.71       58731836    ---   --   ---xx   ph1995-07-02d1t03.flac
     6:08.40       65009324    ---   --   ---xx   ph1995-07-02d1t04.flac
     9:15.30       97972604    ---   --   ---xx   ph1995-07-02d1t05.flac
     5:17.45       56024684    ---   --   ---xx   ph1995-07-02d1t06.flac
    12:24.42      131340428    ---   --   ---xx   ph1995-07-02d1t07.flac
     3:48.44       40322732    ---   --   ---xx   ph1995-07-02d1t08.flac
     6:48.60       72112364    ---   --   ---xx   ph1995-07-02d1t09.flac
     5:56.64       62948972    ---   --   ---xx   ph1995-07-02d1t10.flac
    18:37.69      197201132    ---   --   ---xx   ph1995-07-02d2t01.flac
     7:57.65       84295724    ---   --   ---xx   ph1995-07-02d2t02.flac
     9:57.18      105353180    ---   --   ---xx   ph1995-07-02d2t03.flac
    13:04.37      138384668    ---   --   ---xx   ph1995-07-02d2t04.flac
     1:56.06       20476556    ---   --   ---xx   ph1995-07-02d2t05.flac
     6:08.30       64985804    ---   --   ---xx   ph1995-07-02d2t06.flac
     3:46.40       39960524    ---   --   ---xx   ph1995-07-02d3t01.flac
    10:57.66      116050076    ---   --   ---xx   ph1995-07-02d3t02.flac
     0:47.43        8391980    ---   --   ---xx   ph1995-07-02d3t03.flac
     5:10.46       54792236    ---   --   ---xx   ph1995-07-02d3t04.flac
     3:02.10       32128364    ---   --   ---xx   ph1995-07-02d3t05.flac
   159:07.55     1684221084 B                     (totals for 21 files, 0.4870 overall compression ratio)

Show Checksums
FFP
ph1995-07-02d1t01.flac:2db0b52a7cfb31a1dfd03056ec421922
ph1995-07-02d1t02.flac:41f7e6d49f5df134390b76cb313621cd
ph1995-07-02d1t03.flac:67aca4e125905b12c625c5e1778ad9fe
ph1995-07-02d1t04.flac:077b3cfe09cbaa8763b494a56023721e
ph1995-07-02d1t05.flac:b42585d476b1b1c03d1cf5116d822eb1
ph1995-07-02d1t06.flac:57fcf06a9b24417b396436d151e2857c
ph1995-07-02d1t07.flac:df0415bef59291b838955df0915ca921
ph1995-07-02d1t08.flac:bef3e8ae73456ccc9482963fb691b77b
ph1995-07-02d1t09.flac:e6c0e2ff1e71201433c3aaef8d4a2178
ph1995-07-02d1t10.flac:c9b79a7328f1c1c141748b15b0756546
ph1995-07-02d2t01.flac:01aa725ee2181f4a4c8679da299b2819
ph1995-07-02d2t02.flac:b538381d2bb451cf7d9160e5e324a640
ph1995-07-02d2t03.flac:914e9326d26e21aa774ec1f7ba433fff
ph1995-07-02d2t04.flac:fd5593f7528822b7441c0bdc59179d53
ph1995-07-02d2t05.flac:e20694ee8e6268b72ba65b2aa589f04b
ph1995-07-02d2t06.flac:73240a27f99d619bcf94050b5faf4674
ph1995-07-02d3t01.flac:d346a675fa70deff7c507aee6775fc83
ph1995-07-02d3t02.flac:f61672ec70041346ec6c4ddfed0b5c96
ph1995-07-02d3t03.flac:2ac07f182fe4d85b85f15f108050ca16
ph1995-07-02d3t04.flac:84f621ce4274c1c4ec48341fee38d764
ph1995-07-02d3t05.flac:95b9c85658b1c5d906cc5e36c9414541
WAV-md5
323de88d5249a1ec5df4963d0a091f8b *ph1995-07-02d1t01.wav
562fb0c9a564c38d88fd9db74971ba05 *ph1995-07-02d1t02.wav
58f04d152237415b5ff45caf2652b028 *ph1995-07-02d1t03.wav
8b48153f119e04083de295b362b2e181 *ph1995-07-02d1t04.wav
915dbdedc999cd1bba668693a82063d6 *ph1995-07-02d1t05.wav
db773260d6ac62d6bcc46180904ee9ec *ph1995-07-02d1t06.wav
6b4b53809850028eb38af92b439fdabe *ph1995-07-02d1t07.wav
407a6778346833fc0e809576318faa08 *ph1995-07-02d1t08.wav
5ee30fa9f9f2e83747444dbd06b01ca6 *ph1995-07-02d1t09.wav
16769fececb7f10a1c21c876643475db *ph1995-07-02d1t10.wav
7be4c4e3fda42b5d46ed6d4b5c5435e1 *ph1995-07-02d2t01.wav
c7e50a5efb33c807fffe091b06dedd99 *ph1995-07-02d2t02.wav
7cb303498bc96a26a6b860c452c38540 *ph1995-07-02d2t03.wav
0686d6dbb6fefa60c11b8d08affefccf *ph1995-07-02d2t04.wav
b9ebe3a7cbfa918d72cca769e18841ec *ph1995-07-02d2t05.wav
710b90957b9186b886189b67ac7004bd *ph1995-07-02d2t06.wav
72a22feba130f1c5c3e5a093b6ce4ee3 *ph1995-07-02d3t01.wav
bccc6922b5e7a159a79d81a4d6fbbef6 *ph1995-07-02d3t02.wav
3539f1e6ddeb8c8641cdf927d9c7d91f *ph1995-07-02d3t03.wav
a67b7a06f6df501777f82b685f99dfea *ph1995-07-02d3t04.wav
1c523dea27db9ef777c41fbf70d7d279 *ph1995-07-02d3t05.wav

Comments
Add Comment
Other Sources (comments)
shnf; B&K 4011's >... (1) shnf; AKG 460... (0) flac16; AKG... (0) flac16, 48kHz; AKG... (0)
Date User Comment