Browse Collections Artists Sources   Search Dates

Add Show    List Management    Help


Grateful Dead 07/29/88
Laguna Seca Recreation Area, Monterey, CA
Comments Add Comment    Source Collectors    Add to Collection    Add to Want List    History
Source # 86255 Other Sources
Entered by Matt Vernon
Checksums ffp , flac-md5
Disc Counts 2 / 3
Media Size
Date Circulated
Date Added
07/05/2007
07/05/2007
Source Summary flac16; Source: Schoeps cmc 4/mk2-> Sony pcm-f1->Beta->Dat->Sony pcm R-500(playback)->vx pocket v2->SF6 Taper: unknown 
  Archive
Source Information - Download Text | Download Zip
Grateful Dead 7/29/1988 (Friday)
Laguna Seca Raceway
Monterey, Ca
Source: Schoeps cmc 4/mk2-> Sony pcm-f1->Beta->Dat->Sony pcm R-500(playback)->vx pocket v2->SF6
Taper: unknown
Transferred and encoded to flac by: M.Watson
The source dat by: wklitz

Disc I
Set I
Aiko Aiko
Walking Blues
Candyman
Queen Jane
Althea
Blow away
Casssidy->
Deal

Disc II
Set II
Tuning
Chinacat Sunflower->
Crazy Fingers->
I Know You Rider->
Playin�->
Drums->

Disc III
Set II Cont.
Space->
The Wheel->
Gimme Some Lovin�->
Believe It Or Not->
Sugar Magnolia
E. Black Muddy River


The volume of the right channel was a little lower than the left. I adjusted it 0.51db (106.06%). This was the only processing done to this recording. Disc II and Disc III can be reassembled seamlessly. There was no mic location info on the source dat but I would guess that this recording was done fob because there is not a lot of crowd noise and omni capsules were used. I would like to thank wklitz for loaning me his dats.

gd1988-07-29.d1.t1.flac:f24cd9cdca0afeb2d5cff7f760035fff
gd1988-07-29.d1.t2.flac:00cdd349a5b703fafd52ed60ec375b97
gd1988-07-29.d1.t3.flac:97dabe4ae4f46625c9ee277b0b015107
gd1988-07-29.d1.t4.flac:ade675ef398f78cae144c99b841b9062
gd1988-07-29.d1.t5.flac:4c80a3e949a96127cac639aa89404754
gd1988-07-29.d1.t6.flac:b1e020a2bbfee570cd89b98ceb75d9c3
gd1988-07-29.d1.t7.flac:57f4d28f91487b96a1d5132776eabac1
gd1988-07-29.d1.t8.flac:a0cbd85d1b833e0d042c345c3d34e14f
gd1988-07-29.d2.t1.flac:a4c4bf49eb50964beff808161e71cc05
gd1988-07-29.d2.t2.flac:392b349c8182f38fb0b6576b9e0f69b6
gd1988-07-29.d2.t3.flac:04014ffe68818c2e382239ff23479273
gd1988-07-29.d2.t4.flac:18604c58e28ad7ea174cf1ec807fbdce
gd1988-07-29.d2.t5.flac:1514b04d0e6a15f254ba1afe7aaa5495
gd1988-07-29.d2.t6.flac:968c28676e4024a06ab52b904c729448
gd1988-07-29.d3.t1.flac:25bea528e35906b9ab75e9f1d8abe336
gd1988-07-29.d3.t2.flac:5115e93f5e486c4319f98097834db5b8
gd1988-07-29.d3.t3.flac:99aeceff815b4c7dd8a609e7119383ba
gd1988-07-29.d3.t4.flac:33527737989301fccd0ac145cf4402ac
gd1988-07-29.d3.t5.flac:f4c4b6e84d5beef0a42f7a3973bdf574
gd1988-07-29.d3.t6.flac:763726b7555a252ef422669ac30c8154

    length     expanded size   cdr  WAVE problems filename
     7:40.44       81248300    -b-   --   ---xx   gd1988-07-29.d1.t1.flac
     7:29.47       79314988    -b-   --   ---xx   gd1988-07-29.d1.t2.flac
     9:30.28      100614188    -b-   --   ---xx   gd1988-07-29.d1.t3.flac
     7:16.33       76988460    -b-   --   ---xx   gd1988-07-29.d1.t4.flac
     9:59.27      105725996    -b-   --   ---xx   gd1988-07-29.d1.t5.flac
     9:09.71       97009708    -b-   --   ---xx   gd1988-07-29.d1.t6.flac
     5:58.46       63258668    -b-   --   ---xx   gd1988-07-29.d1.t7.flac
     8:10.43       86536232    -b-   --   ---xx   gd1988-07-29.d1.t8.flac
     2:20.61       24840240    -b-   --   ---xx   gd1988-07-29.d2.t1.flac
     6:16.05       66338860    -b-   --   ---xx   gd1988-07-29.d2.t2.flac
     7:57.58       84279340    -b-   --   ---xx   gd1988-07-29.d2.t3.flac
     5:21.69       56786988    -b-   --   ---xx   gd1988-07-29.d2.t4.flac
    12:17.14      130039852    -b-   --   ---xx   gd1988-07-29.d2.t5.flac
    10:41.74      113246252    -b-   --   ---xx   gd1988-07-29.d2.t6.flac
     9:37.26      101842988    -b-   --   ---xx   gd1988-07-29.d3.t1.flac
     5:04.41       53723180    -b-   --   ---xx   gd1988-07-29.d3.t2.flac
     4:48.40       50896940    -b-   --   ---xx   gd1988-07-29.d3.t3.flac
     6:57.48       73670700    -b-   --   ---xx   gd1988-07-29.d3.t4.flac
    14:36.35      154607660    -b-   --   ---xx   gd1988-07-29.d3.t5.flac
     6:06.71       64730152    -b-   --   ---xx   gd1988-07-29.d3.t6.flac
   157:22.55        1588.54 MB                    (totals for 20 files, 0.5153 overall compression ratio)
Show Checksums
ffp
gd1988-07-29.d1.t1.flac:f24cd9cdca0afeb2d5cff7f760035fff
gd1988-07-29.d1.t2.flac:00cdd349a5b703fafd52ed60ec375b97
gd1988-07-29.d1.t3.flac:97dabe4ae4f46625c9ee277b0b015107
gd1988-07-29.d1.t4.flac:ade675ef398f78cae144c99b841b9062
gd1988-07-29.d1.t5.flac:4c80a3e949a96127cac639aa89404754
gd1988-07-29.d1.t6.flac:b1e020a2bbfee570cd89b98ceb75d9c3
gd1988-07-29.d1.t7.flac:57f4d28f91487b96a1d5132776eabac1
gd1988-07-29.d1.t8.flac:a0cbd85d1b833e0d042c345c3d34e14f
gd1988-07-29.d2.t1.flac:a4c4bf49eb50964beff808161e71cc05
gd1988-07-29.d2.t2.flac:392b349c8182f38fb0b6576b9e0f69b6
gd1988-07-29.d2.t3.flac:04014ffe68818c2e382239ff23479273
gd1988-07-29.d2.t4.flac:18604c58e28ad7ea174cf1ec807fbdce
gd1988-07-29.d2.t5.flac:1514b04d0e6a15f254ba1afe7aaa5495
gd1988-07-29.d2.t6.flac:968c28676e4024a06ab52b904c729448
gd1988-07-29.d3.t1.flac:25bea528e35906b9ab75e9f1d8abe336
gd1988-07-29.d3.t2.flac:5115e93f5e486c4319f98097834db5b8
gd1988-07-29.d3.t3.flac:99aeceff815b4c7dd8a609e7119383ba
gd1988-07-29.d3.t4.flac:33527737989301fccd0ac145cf4402ac
gd1988-07-29.d3.t5.flac:f4c4b6e84d5beef0a42f7a3973bdf574
gd1988-07-29.d3.t6.flac:763726b7555a252ef422669ac30c8154
flac-md5
ebab53b6550e28afc297f240d798f031 *gd1988-07-29.d1.t1.flac
d8c1e0de76e292637519180c60b23be5 *gd1988-07-29.d1.t2.flac
ef7e229e84bc97b576d28d14103bb4c3 *gd1988-07-29.d1.t3.flac
a2af1fdb93a6c6c26d05aa96da503d4f *gd1988-07-29.d1.t4.flac
fc9d26485a17aa67dfb4ad8049cca14f *gd1988-07-29.d1.t5.flac
3d5671b92302d21dc719c0f888542a8f *gd1988-07-29.d1.t6.flac
d823b26195955e75cd8328452e8aa568 *gd1988-07-29.d1.t7.flac
590af089be44bb16a8e5d42edd6ec605 *gd1988-07-29.d1.t8.flac
0cab297df16dae94bed41e630a5d357e *gd1988-07-29.d2.t1.flac
6716cc2020192620c74d17e9ef59b6bb *gd1988-07-29.d2.t2.flac
00f8286acc28020af854289511652ca2 *gd1988-07-29.d2.t3.flac
0f3fe1a9fb96cfa800fd502e5e96707e *gd1988-07-29.d2.t4.flac
0347b7f442794c2d1c1b2b8a86c697f9 *gd1988-07-29.d2.t5.flac
63b69ebeffeecd8d57ef1dffc530acfc *gd1988-07-29.d2.t6.flac
5aa33bb4be41d663e27b5418cf169bc8 *gd1988-07-29.d3.t1.flac
e4ca4e80cce5ae8d701de1af1d3bb67a *gd1988-07-29.d3.t2.flac
e37304a74a72360b5fe8d5654e9ad267 *gd1988-07-29.d3.t3.flac
f1cc24193c256bdab6262c261b8bda42 *gd1988-07-29.d3.t4.flac
182faaede2d1f07cbcaa87da5bb354fc *gd1988-07-29.d3.t5.flac
0081f0047dae49427f09d72e20587afa *gd1988-07-29.d3.t6.flac

Comments
Add Comment
Other Sources (comments)
Soundboard (was originally... (5) flac16; Hat Mounted... (0) flac16; TAPER: Greg... (0) flac16; Second Set... (3) flac16; Recording... (2)
Date User Comment
02/13/2010 charliemiller This is a great recording. But besides having SBE's on every track, it also has very severe DC offset issues.