Browse Collections Artists Sources   Search Dates

Add Show    List Management    Help


Phish 12/30/92
Symphony Hall, Springfield, MA
Comments Add Comment    Source Collectors    Add to Collection    Add to Want List    History
Source # 86296 Other Sources
Entered by Ben Mohr
Checksums all_ffp , all_wav_md5
Disc Counts 2 / 3
Media Size
Date Circulated
Date Added
07/06/2007
07/06/2007
Source Summary FOB Schoeps mk4 > Reuthelhuber PS > Panasonic SV-255 @48kHz; Tascam DA-20mkII > Tascam HD-P2 > r8brain v1.9 (48>44.1kHz) > WaveLab 5.01b > CDWav > FLAC; Taped by Joe LeClair; Transferred by Jason Sobel 
Source Information - Download Text | Download Zip
Phish
December 30, 1992
Symphony Hall
Springfield, MA

source:
(FOB) Schoeps mk4 > Reuthelhuber power supply > Panasonic SV-255 (@ 48 kHz)

transfer:
Tascam DA-20MKII > Tascam HD-P2 > CF card > usb 2.0 > pc > r8brain v1.9 (resample to 44.1 kHz) > WaveLab 5.01b (fades, patch) > CD Wave v1.95.1 > FLAC v1.1.4 (Level 8)

FLAC tags added with metaflac v1.1.4

recorded by Joe LeClair
transferred by Jason Sobel ([email protected])
seeded July 6, 2007

notes:
the 48kHz files from the DAT transfer have been archived, and are available upon request.
Big thanks to Dave Flaschner for letting me borrow his DATs!

Disc 1 - [70:27]
Set I
01 - [04:34] - The Landlady
02 - [04:00] - Sparkle
03 - [08:30] - Split Open and Melt
04 - [09:28] - Esther
05 - [07:22] - Chalk Dust Torture
06 - [15:14] - Fluffhead
07 - [02:55] - Paul and Silas
08 - [11:00] - Reba ->
09 - [02:37] - I Walk The Line ->
10 - [01:34] - Reba
11 - [03:12] - I Didn't Know

Disc 2 - [53:55]
Set I continued
01 - [00:56] - David Bowie ->
02 - [05:28] - Timber Ho ->
03 - [11:43] - David Bowie
Set II
04 - [03:32] - Axilla
05 - [06:19] - Rift
06 - [07:42] - Bathtub Gin
07 - [18:15] - You Enjoy Myself

Disc 3 - [52:37]
Set II continued
01 - [04:58] - The Man Who Stepped Into Yesterday >
02 - [03:07] - Avenu Malkenu >
03 - [01:27] - The Man Who Stepped Into Yesterday
04 - [11:39] - Possum
05 - [03:02] - Big Ball Jam ->
06 - [01:31] - HYHU
07 - [05:46] - Love You
08 - [01:08] - HYHU
09 - [04:20] - Take the A-Train
10 - [04:41] - Llama
11 - [02:15] - encore break
12 - [06:41] - Ride Captain Ride
13 - [01:59] - Sweet Adeline

show notes:
YEM included an Auld Lang Syne jam.
TMWSIY was preceded by a humorous full-band dedication to cousins.
Page teased Satin Doll during 'A' Train, which was dedicated to Trey's uncle.
Timber Ho was played for the first time since June 16, 1990 (272 shows).

tech notes:
minor drop-out in "Take the A-Train" from [01:28.5] to [01:29.3]
this drop-out was patched with the following source:
Neumann [email protected] XY>SV 255
Taped by Scott Pridgeon
Transferred by Chris Moore
http://db.etree.org/shn/74300

------------------------------------------------------------------------------------

SHNtool output:

    length     expanded size   cdr  WAVE problems filename
     4:34.02       48338348    ---   --   ---xx   ph1992-12-30d1t01.flac
     4:00.33       42413660    ---   --   ---xx   ph1992-12-30d1t02.flac
     8:30.22       90015788    ---   --   ---xx   ph1992-12-30d1t03.flac
     9:28.28      100261100    ---   --   ---xx   ph1992-12-30d1t04.flac
     7:21.41       77888876    ---   --   ---xx   ph1992-12-30d1t05.flac
    15:13.44      161156732    ---   --   ---xx   ph1992-12-30d1t06.flac
     2:55.24       30926492    ---   --   ---xx   ph1992-12-30d1t07.flac
    11:00.06      116438156    ---   --   ---xx   ph1992-12-30d1t08.flac
     2:36.51       27638396    ---   --   ---xx   ph1992-12-30d1t09.flac
     1:33.72       16574588    ---   --   ---xx   ph1992-12-30d1t10.flac
     3:12.22       33920588    ---   --   ---xx   ph1992-12-30d1t11.flac
     0:56.18        9920780    ---   --   ---xx   ph1992-12-30d2t01.flac
     5:27.51       57802796    ---   --   ---xx   ph1992-12-30d2t02.flac
    11:42.36      123917516    ---   --   ---xx   ph1992-12-30d2t03.flac
     3:32.03       37403900    ---   --   ---xx   ph1992-12-30d2t04.flac
     6:19.32       66930908    ---   --   ---xx   ph1992-12-30d2t05.flac
     7:41.44       81423932    ---   --   ---xx   ph1992-12-30d2t06.flac
    18:15.22      193209788    ---   --   ---xx   ph1992-12-30d2t07.flac
     4:58.18       52609580    ---   --   ---xx   ph1992-12-30d3t01.flac
     3:07.36       33071516    ---   --   ---xx   ph1992-12-30d3t02.flac
     1:26.58       15306860    ---   --   ---xx   ph1992-12-30d3t03.flac
    11:39.22      123355388    ---   --   ---xx   ph1992-12-30d3t04.flac
     3:02.27       32168348    ---   --   ---xx   ph1992-12-30d3t05.flac
     1:31.20       16099484    ---   --   ---xx   ph1992-12-30d3t06.flac
     5:46.37       61121468    ---   --   ---xx   ph1992-12-30d3t07.flac
     1:08.20       12042284    ---   --   ---xx   ph1992-12-30d3t08.flac
     4:20.22       45915788    ---   --   ---xx   ph1992-12-30d3t09.flac
     4:41.19       49613132    ---   --   ---xx   ph1992-12-30d3t10.flac
     2:14.51       23757596    ---   --   ---xx   ph1992-12-30d3t11.flac
     6:41.24       70792892    ---   --   ---xx   ph1992-12-30d3t12.flac
     1:58.70       20979884    ---   --   ---xx   ph1992-12-30d3t13.flac
   176:58.00     1873016564 B                     (totals for 31 files, 0.4987 overall compression ratio)

Show Checksums
all_ffp
ph1992-12-30d1t01.flac:1fd78854fe7bcd1e38ee45e3fcbfc3f0
ph1992-12-30d1t02.flac:a7d3932335cc5db3597c2021ee17c653
ph1992-12-30d1t03.flac:84098b2e0ee8f124fc7fafed0cd8daa9
ph1992-12-30d1t04.flac:997cdf9e48a657bd2d343e995d0b5bbe
ph1992-12-30d1t05.flac:10ab03222e61f64fb47422dfcfc23a7b
ph1992-12-30d1t06.flac:aac3a47754e7c2754241b8579dd2934e
ph1992-12-30d1t07.flac:28eaeb90cb6c120e179f9e2aa800dd70
ph1992-12-30d1t08.flac:21837cc126d51e24d2e1203f947655ab
ph1992-12-30d1t09.flac:10d14b0d1f4409987d0dbd0a49ab37c3
ph1992-12-30d1t10.flac:f0b503b731f2e5cfa837be4582fa6979
ph1992-12-30d1t11.flac:2e574322706bd54485e498bfb6cf1a5d
ph1992-12-30d2t01.flac:3981a7b87c37a11ba968bad694c0da87
ph1992-12-30d2t02.flac:a7830130648bfd33b70a9cf9df083b20
ph1992-12-30d2t03.flac:2b29caa6ed6d8efb88d5aed630bfded2
ph1992-12-30d2t04.flac:a37d4d3ccba674ca7d3b51c8de0f42ba
ph1992-12-30d2t05.flac:a0637eb4e1d329f94d80c4157bea6f18
ph1992-12-30d2t06.flac:ee2493fae4b7bb940d1a3a2eea853daf
ph1992-12-30d2t07.flac:002db7aeccc839f88c04bdc14a659c40
ph1992-12-30d3t01.flac:458c325e5b28b44b868cd16394385d2f
ph1992-12-30d3t02.flac:a51b5ea525eb6f66ec40fda041b51669
ph1992-12-30d3t03.flac:ba2f077315f3b7b3e098b0eb8c1a4979
ph1992-12-30d3t04.flac:c8aabfef3ffab8323562c331d7547ef8
ph1992-12-30d3t05.flac:22c75a8034abc967b4544c5b37592992
ph1992-12-30d3t06.flac:0027219bc8d5316c6ee51ab0fc14b7f0
ph1992-12-30d3t07.flac:285fe4c9048d5db6c4d5bd961654b069
ph1992-12-30d3t08.flac:8c7978892da908f711ae09f65a952c37
ph1992-12-30d3t09.flac:c53a2a77c549852adafd880c18826278
ph1992-12-30d3t10.flac:8c4c3f0990958824579501564d4cbc7b
ph1992-12-30d3t11.flac:91abdd10bdc34e4cbf78c72a93e12130
ph1992-12-30d3t12.flac:1dc451acf5b020600a96bb0c4c800c5d
ph1992-12-30d3t13.flac:fc4d6abe84bd84107d1388a32a8a420a
all_wav_md5
659848da734aae653bea3d2e562e687f *ph1992-12-30d1t01.wav
1461976f31042b028912508d06388351 *ph1992-12-30d1t02.wav
75ea0c6911e9cde1d6de506f06290484 *ph1992-12-30d1t03.wav
b34027c4ceb02a3cde2fd3a6bb45079c *ph1992-12-30d1t04.wav
835d6aff50559a37e721b8fd6e815a3b *ph1992-12-30d1t05.wav
15249f9e674badb66efd8c6b5fc7c523 *ph1992-12-30d1t06.wav
2b5e03124239b6f3b966ee8d126f49f0 *ph1992-12-30d1t07.wav
81fb675476ee2cf1e38c64d810b56024 *ph1992-12-30d1t08.wav
520a7fcb4bdc70a0b54ac14b25d6ace6 *ph1992-12-30d1t09.wav
a67be6b3d32458ca78d343465197a87c *ph1992-12-30d1t10.wav
ccb4c0673cda921f2fe026247c73d4de *ph1992-12-30d1t11.wav
bec1ecfe33f27ccdacd4151748b2c0df *ph1992-12-30d2t01.wav
4963867993ce4d1c7d9b8dee92d79e09 *ph1992-12-30d2t02.wav
29a9f312a3cc107ea4dec283e21434ae *ph1992-12-30d2t03.wav
d9db2e49262f127ab76c5c27017b7166 *ph1992-12-30d2t04.wav
c417d01fcdee4e78b9a030dc6c57751f *ph1992-12-30d2t05.wav
44fe83ccc45264c74f719e25d8b638e4 *ph1992-12-30d2t06.wav
9471645aeb24f4358fa4211750e262cb *ph1992-12-30d2t07.wav
92b31a5a19e4689b40aafc95b8195fa6 *ph1992-12-30d3t01.wav
7e2f70eb16aab6f514cdad87068897ed *ph1992-12-30d3t02.wav
0ae5d1c65df67e9203db72e1dfacffc4 *ph1992-12-30d3t03.wav
d2370c633d189b2ea0438bee48d1f399 *ph1992-12-30d3t04.wav
52ee528b8edd11b095e0764fa4304291 *ph1992-12-30d3t05.wav
2af0a1c273e1265bca7fd327a6b530e0 *ph1992-12-30d3t06.wav
646550fbad5e0c07de0850eced5d70f3 *ph1992-12-30d3t07.wav
d9b7fc48ab480f8e0c79f8be6ab35a1e *ph1992-12-30d3t08.wav
21b5660a5751b25886b3c110d6ba06a6 *ph1992-12-30d3t09.wav
8eb72a867a3989381b3660645334ed19 *ph1992-12-30d3t10.wav
ff97c000e9306bde76be8b570ee3bcf2 *ph1992-12-30d3t11.wav
cce3f390ca5f2c5dfd762a7ccdef675b *ph1992-12-30d3t12.wav
70bc1b60eccea4dbc6d5067be700a770 *ph1992-12-30d3t13.wav

Comments
Add Comment
Other Sources (comments)
Sennheiser ME80 > Sony D10... (0) SBD > DAT > Cass/x; Sony... (0) Neumann RSM191 (125deg XY)... (0)
Date User Comment