Browse Collections Artists Sources   Search Dates

Add Show    List Management    Help


Phish 03/31/93
Roseland Theater, Portland, OR
Comments Add Comment    Source Collectors    Add to Collection    Add to Want List    History
Source # 86301 Other Sources
Entered by Ben Mohr
Checksums all_ffp , all_wav_md5
Disc Counts 2 / 3
Media Size
Date Circulated
Date Added
07/07/2007
07/07/2007
Source Summary FOB Neumann km140 > Sonosax SX-M2 > Sony D-10 II Pro @48kHz; Tascam DA-20mkII > Tascam HD-P2 > WaveLab 5.01b (48>44.1kHz) > CDWav > FLAC; Taped by Jim Cowan; Transferred by Jason Sobel 
Source Information - Download Text | Download Zip
Phish
March 31, 1993
Roseland Theater
Portland, OR

source:
(FOB) Neumann km140 > Sonosax SX-M2 > Sony D-10 II pro (@ 48 kHz)

transfer:
Tascam DA-20MKII > Tascam HD-P2 > CF card > usb 2.0 > pc > WaveLab 5.01b (de-emphasis, resample to 44.1 kHz, fades) > CD Wave v1.95.1 > FLAC v1.1.4 (Level 8)

FLAC tags added with metaflac v1.1.4

recorded by Jim Cowan
transferred by Jason Sobel ([email protected])
seeded July 7, 2007

notes:
The original DAT recording was made with pre-emphasis.
The Waves Q10 Paragraphic EQ v5.0 plug-in was used to de-emphasize the recording.
The original 48 kHz .wav files from the DAT transfer have been archived, and are available upon request.
Big thanks to Dave Flaschner for letting me borrow his DATs!

Disc 1 - [77:47]
Set I
01 - [07:26] - Runaway Jim
02 - [08:34] - Foam
03 - [04:00] - Sparkle
04 - [08:35] - Split Open and Melt
05 - [05:56] - Mound
06 - [07:17] - Punch You in the Eye
07 - [05:10] - Sample in a Jar
08 - [12:44] - Reba
09 - [03:42] - I Didn't Know
10 - [14:24] - David Bowie

Disc 2 - [69:02]
Set II
01 - [02:09] - Lengthwise ->
02 - [09:24] - Maze
03 - [03:45] - Bouncing Around the Room
04 - [04:10] - Uncle Pen
05 - [14:05] - Harry Hood
06 - [03:33] - Big Ball Jam
07 - [08:41] - It's Ice
08 - [23:14] - You Enjoy Myself

Disc 3 - [37:29]
Set II continued
01 - [17:24] - Harpua
02 - [05:50] - Chalk Dust Torture
03 - [03:22] - encore break
04 - [08:56] - AC/DC Bag
05 - [01:57] - Sweet Adeline

show notes:
I Didn't Know featured Fishman on washboard.
Bowie included All Fall Down and Simpsons Signals.
Hood later contained another Simpsons Signal and a Pink Panther theme tease.
Listen at the end of It's Ice for a brief interlude that later became the tag ending to Axilla Pt. II.
Harpua contained Axle F (Beverly Hills Cop theme) and She's So Cold (a Rolling Stones song) teases.
Sweet Adeline was dedicated to Nina, who lost her ID and got it back from Trey on stage.

----------------------------------------------------------------------------------------------------

SHNtool output:

    length     expanded size   cdr  WAVE problems filename
     7:26.07       78690908    ---   --   ---xx   ph1993-03-31d1t01.flac
     8:33.41       90589676    ---   --   ---xx   ph1993-03-31d1t02.flac
     3:59.51       42279596    ---   --   ---xx   ph1993-03-31d1t03.flac
     8:34.66       90824876    ---   --   ---xx   ph1993-03-31d1t04.flac
     5:55.69       62784332    ---   --   ---xx   ph1993-03-31d1t05.flac
     7:17.31       77159756    ---   --   ---xx   ph1993-03-31d1t06.flac
     5:09.44       54611132    ---   --   ---xx   ph1993-03-31d1t07.flac
    12:43.72      134762588    ---   --   ---xx   ph1993-03-31d1t08.flac
     3:42.05       39172604    ---   --   ---xx   ph1993-03-31d1t09.flac
    14:23.64      152383772    ---   --   ---xx   ph1993-03-31d1t10.flac
     2:09.25       22814444    ---   --   ---xx   ph1993-03-31d2t01.flac
     9:23.50       99430844    ---   --   ---xx   ph1993-03-31d2t02.flac
     3:44.71       39680636    ---   --   ---xx   ph1993-03-31d2t03.flac
     4:10.33       44177660    ---   --   ---xx   ph1993-03-31d2t04.flac
    14:05.26      149119196    ---   --   ---xx   ph1993-03-31d2t05.flac
     3:33.04       37582652    ---   --   ---xx   ph1993-03-31d2t06.flac
     8:41.06       91918556    ---   --   ---xx   ph1993-03-31d2t07.flac
    23:13.56      245856956    ---   --   ---xx   ph1993-03-31d2t08.flac
    17:24.08      184180460    ---   --   ---xx   ph1993-03-31d3t01.flac
     5:49.60       61704764    ---   --   ---xx   ph1993-03-31d3t02.flac
     3:21.65       35609324    ---   --   ---xx   ph1993-03-31d3t03.flac
     8:56.12       94578668    ---   --   ---xx   ph1993-03-31d3t04.flac
     1:57.34       20718812    ---   --   ---xx   ph1993-03-31d3t05.flac
   184:18.00     1950632212 B                     (totals for 23 files, 0.5618 overall compression ratio)

Show Checksums
all_ffp
ph1993-03-31d1t01.flac:d10fadba6f5d9a3f91081dca4355d451
ph1993-03-31d1t02.flac:22ac5cc3811b6a98881495a76e405924
ph1993-03-31d1t03.flac:f1a5689b861a12925a56f2bc9878944e
ph1993-03-31d1t04.flac:85cf462c5b364f5eb7a46cb720a66a1f
ph1993-03-31d1t05.flac:74ebdf6a88d3ce0dd49cb6f33d69a36c
ph1993-03-31d1t06.flac:0ba2eaecc15125de47574a3083c1025d
ph1993-03-31d1t07.flac:eef6f3fdcaf8042fa31bc779ee2d4997
ph1993-03-31d1t08.flac:7686707e62dc43448fe013a17554ddde
ph1993-03-31d1t09.flac:70f8c0783cfe30e5f400b7a7b5a29fb8
ph1993-03-31d1t10.flac:ace59bd7a44c2fa0e6999cd04c0d7d72
ph1993-03-31d2t01.flac:439b17b907ec27d405a9dec8bd184362
ph1993-03-31d2t02.flac:d92153a2d843ff126206b748e98448dd
ph1993-03-31d2t03.flac:a2af129cbdad584ea8a19e7331de6c02
ph1993-03-31d2t04.flac:e757837679c75ac379e50759ae2085f2
ph1993-03-31d2t05.flac:2e76945366581b8c71079872484dc2b0
ph1993-03-31d2t06.flac:849f8de0f8f505ed1512e3e9e49efd25
ph1993-03-31d2t07.flac:1b21a4f6f2d0e4b28b8b61dfaddd52b9
ph1993-03-31d2t08.flac:5fcb7b58b9831e591306d2a7e7645346
ph1993-03-31d3t01.flac:9f118702ec24ded095fdb7671faad0f8
ph1993-03-31d3t02.flac:f598d1356c6495986fab30ee52c687f6
ph1993-03-31d3t03.flac:d731f255a1077247cf60b511f0f0c0c1
ph1993-03-31d3t04.flac:a964427c4227b96f44b8b1c8e9064944
ph1993-03-31d3t05.flac:0295f2a52db59ab5ec90d71bbf832477
all_wav_md5
ea80046f3622a502484fb2135eb0b539 *ph1993-03-31d1t01.wav
2192e4517f8b8ad9e852f7af6842aff6 *ph1993-03-31d1t02.wav
36022a5781e5d26eb2b6e3c978a67303 *ph1993-03-31d1t03.wav
8a12f5a111f2aa586ad1b1b753dff1a5 *ph1993-03-31d1t04.wav
baa1990f1b5d3d582d3c3271120eccee *ph1993-03-31d1t05.wav
c1318649fd89baa86042c8a2421af5d4 *ph1993-03-31d1t06.wav
91ffeb0251a862b2bf1866d5e89f3859 *ph1993-03-31d1t07.wav
860da249c6d2035a0c30410014cf1e78 *ph1993-03-31d1t08.wav
cfb4431a6fee5da16f0a287073a959d6 *ph1993-03-31d1t09.wav
8975033bf4b770c56d3f4210075c031e *ph1993-03-31d1t10.wav
a548dd80cf334b132aeb18edb56950f1 *ph1993-03-31d2t01.wav
3eafd75fded482b7b48ae7a1ab5df1ac *ph1993-03-31d2t02.wav
5e466b08eee9d1d6916bad440864a3c3 *ph1993-03-31d2t03.wav
04dc1276d63d8fb7e2320e32efc08f70 *ph1993-03-31d2t04.wav
8cc1de62f5ad7ef1afeadc7ce5144a6b *ph1993-03-31d2t05.wav
3d0bc680db0d90149e37a8a4f146fe3b *ph1993-03-31d2t06.wav
662d680fa1c604d1e19c42bf1c85fd64 *ph1993-03-31d2t07.wav
4828aa65424938d4f54f79ef9a4ed5f3 *ph1993-03-31d2t08.wav
6aea132ef2ec818d4265042bf4d2a619 *ph1993-03-31d3t01.wav
18ce12be9e0edacd36d1228bfdf9f0cc *ph1993-03-31d3t02.wav
8ce379588246d7f9a3fb6e69319bd58c *ph1993-03-31d3t03.wav
43bea7f6cf327e20161702a521d4c8bf *ph1993-03-31d3t04.wav
8bb5b41abcf8d95d920107f2fda4e214 *ph1993-03-31d3t05.wav

Comments
Add Comment
Other Sources (comments)
TOA K1's Balcony > DTR-80P... (6) flac16; TOA K1 >... (0)
Date User Comment