Browse Collections Artists Sources   Search Dates

Add Show    List Management    Help


Phish 11/18/96
Mid-South Coliseum, Memphis, TN
Comments Add Comment    Source Collectors    Add to Collection    Add to Want List    History
Source # 86309 Other Sources
Entered by Ben Mohr
Checksums all_ffp , all_wav_md5
Disc Counts 2 / 2
Media Size
Date Circulated
Date Added
07/07/2007
07/07/2007
Source Summary AT 4051 (XY) > Stewart BPS-1 > AT 8202 > Sony D7 @48kHz; Tascam DA-20mkII > Tascam HD-P2 > r8brain v1.9 (48>44.1kHz) > WaveLab 5.01b > CDWave > FLAC; Transferred by Jason Sobel 
Source Information - Download Text | Download Zip
Phish
November 18, 1996
Mid-South Coliseum
Memphis, TN

source:
AT 4051's (XY) > Stewart BPS-1 > AT 8202 (-20dB) > Sony D7 (@ 48 kHz)
recorded from front row center of taper's section

transfer:
Tascam DA-20MKII > Tascam HD-P2 > CF card > usb 2.0 > pc > r8brain v1.9 (resample to 44.1 kHz) > WaveLab 5.01b (fades) > CD Wave v1.95.1 > FLAC v1.1.4 (Level 8)

FLAC tags added with metaflac v1.1.4

transferred by Jason Sobel ([email protected])
seeded July 7, 2007

notes:
the 48kHz files from the DAT transfer have been archived, and are available upon request.
Big thanks to Mark Lynn for letting me borrow his DATs!

Disc 1 - [65:38]
Set I
01 - [04:23] - Cars Trucks Buses
02 - [06:02] - Timber Ho
03 - [02:22] - Poor Heart
04 - [08:19] - Taste
05 - [05:12] - Billy Breathes
06 - [08:57] - Chalk Dust Torture
07 - [06:01] - Guelah Papyrus
08 - [03:23] - Ginseng Sullivan
09 - [14:20] - Reba
10 - [06:39] - Character Zero

Disc 2 - [79:35]
Set II
01 - [12:05] - 2001 >
02 - [16:49] - Simple ->
03 - [01:11] - Swept Away >
04 - [01:52] - Steep >
05 - [12:54] - Scent of a Mule
06 - [12:41] - Tweezer *
07 - [02:38] - Hello My Baby *
08 - [02:57] - Tweezer Reprise *
09 - [04:54] - Llama *
10 - [01:30] - encore break
11 - [05:35] - Waste
12 - [04:30] - Johnny B. Goode *

* with Gary Gazaway (aka "El Buho") on trumpet

tech notes:
40 seconds of crowd noise were removed from the middle of the "encore break" track.
This was done to fit the entire second set onto one 80 minute audio CD.
I crossfaded the two sides, so that it sounds smooth and seamless.
No music or stage banter is missing.

------------------------------------------------------------------------------------

SHNtool output:

    length     expanded size   cdr  WAVE problems filename
     4:22.62       46362668    ---   --   ---xx   ph1996-11-18d1t01.flac
     6:02.01       63859196    ---   --   ---xx   ph1996-11-18d1t02.flac
     2:21.49       24987692    ---   --   ---xx   ph1996-11-18d1t03.flac
     8:19.08       88042460    ---   --   ---xx   ph1996-11-18d1t04.flac
     5:11.46       54968636    ---   --   ---xx   ph1996-11-18d1t05.flac
     8:57.08       94745660    ---   --   ---xx   ph1996-11-18d1t06.flac
     6:01.27       63743948    ---   --   ---xx   ph1996-11-18d1t07.flac
     3:23.29       35877452    ---   --   ---xx   ph1996-11-18d1t08.flac
    14:20.14      151736972    ---   --   ---xx   ph1996-11-18d1t09.flac
     6:38.56       70338956    ---   --   ---xx   ph1996-11-18d1t10.flac
    12:05.09      127911212    ---   --   ---xx   ph1996-11-18d2t01.flac
    16:49.29      178055852    ---   --   ---xx   ph1996-11-18d2t02.flac
     1:11.24       12580892    ---   --   ---xx   ph1996-11-18d2t03.flac
     1:51.58       19716860    ---   --   ---xx   ph1996-11-18d2t04.flac
    12:53.44      136460732    ---   --   ---xx   ph1996-11-18d2t05.flac
    12:40.42      134162828    ---   --   ---xx   ph1996-11-18d2t06.flac
     2:37.39       27786572    ---   --   ---xx   ph1996-11-18d2t07.flac
     2:57.08       31241660    ---   --   ---xx   ph1996-11-18d2t08.flac
     4:53.72       51854588    ---   --   ---xx   ph1996-11-18d2t09.flac
     1:29.62       15845468    ---   --   ---xx   ph1996-11-18d2t10.flac
     5:34.59       59056412    ---   --   ---xx   ph1996-11-18d2t11.flac
     4:30.04       47637452    ---   --   ---xx   ph1996-11-18d2t12.flac
   145:13.00     1536974168 B                     (totals for 22 files, 0.5044 overall compression ratio)

Show Checksums
all_ffp
ph1996-11-18d1t01.flac:3ced4a3f24186e0d21476712b07d8a63
ph1996-11-18d1t02.flac:44dcbc78df9f0b43256ab8ece8c52230
ph1996-11-18d1t03.flac:f398317bfb1ae8513616df7d720b2469
ph1996-11-18d1t04.flac:ddb5ed8a3c109823fbcbbcec77aa14c4
ph1996-11-18d1t05.flac:662f3de7362e5ec91a04e2c4a866f890
ph1996-11-18d1t06.flac:737a4999ee1eafd69f80bc2dee9ecb21
ph1996-11-18d1t07.flac:287f25ea41368bce98e992a0e6d2107a
ph1996-11-18d1t08.flac:eeec7a45f853a31b425286933713e125
ph1996-11-18d1t09.flac:73180b90bdd83e56caae40ad99c35640
ph1996-11-18d1t10.flac:27067feb049f6da5885ffd8e314cf882
ph1996-11-18d2t01.flac:d5d213206035ffc2b02fde807ea73909
ph1996-11-18d2t02.flac:ee15e6b7c7b4d3f6df34f3a816188804
ph1996-11-18d2t03.flac:491459de717d68f1efa8ada5b7fdc658
ph1996-11-18d2t04.flac:3ade9f55698551d1f8b73ac050ae7db7
ph1996-11-18d2t05.flac:3350914e79cd955ca932ed8b794340f8
ph1996-11-18d2t06.flac:be920bc508ed89d0c56ccb050f0d0513
ph1996-11-18d2t07.flac:e2a48a36e17f15d59ce826a4cecb0dee
ph1996-11-18d2t08.flac:29c1f507128c9c8dcf7f35014577477e
ph1996-11-18d2t09.flac:53ddf49706eb78489b6df3f0cb433b34
ph1996-11-18d2t10.flac:32acd139c9fcc6290f74569ab5c05e9e
ph1996-11-18d2t11.flac:a8538e87fe448d95f622db96ec481f7d
ph1996-11-18d2t12.flac:1872ed96e26c673b30c21496b88cc292
all_wav_md5
9692a9cee8b7c8ad337cd8a31fc2d41a *ph1996-11-18d1t01.wav
f864d8866b90760bbf9a185d616ee7eb *ph1996-11-18d1t02.wav
31ddf417737c84d0962106bdc9891ef6 *ph1996-11-18d1t03.wav
0beb0883710254c5993e1f20ec025554 *ph1996-11-18d1t04.wav
cbbaf0465af7318284dbb0db4c8d680f *ph1996-11-18d1t05.wav
cc3446b74e8a683df73c6504ced9294a *ph1996-11-18d1t06.wav
2ca9d61d1484d4e2e1c61f6025c76db7 *ph1996-11-18d1t07.wav
ee44d4b278cee6a10cd2a84d492a1294 *ph1996-11-18d1t08.wav
f41789570d85ac1ce8eb45589987cad6 *ph1996-11-18d1t09.wav
d6e4cdbfbc9c9270fac6ef50d4d7eff6 *ph1996-11-18d1t10.wav
77db8ab1c68e548cc639a3dcfb46c0e9 *ph1996-11-18d2t01.wav
e89a2c717ce63508c4ea87ab6cd5a4de *ph1996-11-18d2t02.wav
639ab8263a7fd5fcc38cc76455fdc867 *ph1996-11-18d2t03.wav
a792265ed2eceac187fedbb7601e4a61 *ph1996-11-18d2t04.wav
5f6fc85830deef6aed82c0451ee48ab5 *ph1996-11-18d2t05.wav
0919bc4ad07c5ff4f99395c8bd0574d8 *ph1996-11-18d2t06.wav
bedb186bd4d2a49d1d59bffe1fd51b5c *ph1996-11-18d2t07.wav
faee05e50406c4322c4769cfdf06d2c3 *ph1996-11-18d2t08.wav
f927faf49bef06022acde1c7149fb16a *ph1996-11-18d2t09.wav
895689d1e190c59f8629de3d63445185 *ph1996-11-18d2t10.wav
03a69c9bab915ff1d2f4325e1da158e0 *ph1996-11-18d2t11.wav
4c29e3f09334073299f0b67aa9925012 *ph1996-11-18d2t12.wav

Comments
Add Comment
Other Sources (comments)
AKG C1000 > Sony D7; DAT >... (0) flac16 AKG 460b/ck61... (0)
Date User Comment