Browse Collections Artists Sources   Search Dates

Add Show    List Management    Help


Phish 05/06/93
Palace Theater, Albany, NY
Comments Add Comment    Source Collectors    Add to Collection    Add to Want List    History
Source # 86431 Other Sources
Entered by Ben Mohr
Checksums all_ffp , all_wav_md5
Disc Counts 2 / 3
Media Size
Date Circulated
Date Added
07/15/2007
07/15/2007
Source Summary AKG 460b/ck63 > custom pre-amp > Teac DA-P20 @48kHz; Tascam DA-20mkII > Tascam HD-P2 > WaveLab 5.01b (48>44.1kHz) > CDWav > FLAC; Taped by Tom McMinn; Transferred by Jason Sobel 
Source Information - Download Text | Download Zip
Phish
May 6, 1993
Palace Theatre
Albany, NY

source:
AKG 460b/ck63 > custom pre-amp > Teac DA-P20 (@ 48 kHz)

transfer:
Tascam DA-20MKII > Tascam HD-P2 > CF card > usb 2.0 > pc > WaveLab 5.01b (de-emphasis, fades, resample to 44.1 kHz, patch) > CD Wave v1.95.1 > FLAC v1.1.4 (Level 8)

FLAC tags added with metaflac v1.1.4

recorded by Tom McMinn
transferred by Jason Sobel ([email protected])
seeded July 15, 2007

notes:
The original DAT recording was made with pre-emphasis.
The Waves Q10 Paragraphic EQ v5.0 plug-in was used to de-emphasize the recording.
The original 48 kHz .wav files from the DAT transfer have been archived, and are available upon request.
Big thanks to Dave Flaschner for letting me borrow his DAT tape!

Disc 1 - [64:47]
Set I
01 - [06:19] - Chalk Dust Torture
02 - [05:41] - Mound
03 - [12:04] - Split Open and Melt
04 - [02:27] - The Horse >
05 - [04:55] - Silent in the Morning
06 - [02:23] - All Things Reconsidered
07 - [04:49] - Llama
08 - [14:03] - Fluffhead
09 - [12:06] - Possum

Disc 2 - [55:36]
Set I continued
01 - [03:09] - Lawn Boy *
02 - [03:36] - Why You've Been Gone So Long *^
03 - [04:06] - Tennessee Waltz *^
04 - [05:59] - I Been to Georgia on a Fast Train *^
Set II
05 - [05:35] - Suzy Greenberg
06 - [19:43] - Tweezer
07 - [06:45] - Tela
08 - [03:52] - Uncle Pen
09 - [02:51] - Big Ball Jam

Disc 3 - [47:45]
Set II continued
01 - [09:56] - The Squirming Coil
02 - [07:11] - Mike's Song ->
03 - [04:48] - Ob La Di Ob La Da Jam * ->
04 - [02:44] - Rocky Top *
05 - [01:28] - HYHU * >
06 - [02:51] - Cracklin' Rosie * >
07 - [01:18] - HYHU *
08 - [04:46] - That's Alright Mama *^
09 - [01:40] - encore break
10 - [01:45] - Sweet Adeline
11 - [05:57] - Contact >
12 - [03:21] - Tweezer Reprise

* with Dick Solberg on fiddle
^ with Jeff Walton on acoustic guitar

tech notes:
there was a drop-out on the DAT during Fluffhead from [12:01.5] to [12:02.3]
that drop-out was patched with the following source:
Master Soundboard DAT @ 48 kHz -> DAT
http://db.etree.org/shn/74749

--------------------------------------------------------------------------------------------------

SHNtool output:

    length     expanded size   cdr  WAVE problems filename
     6:18.52       66801548    ---   --   ---xx   ph1993-05-06d1t01.flac
     5:40.40       60070124    ---   --   ---xx   ph1993-05-06d1t02.flac
    12:03.51      127657196    ---   --   ---xx   ph1993-05-06d1t03.flac
     2:27.35       26013164    ---   --   ---xx   ph1993-05-06d1t04.flac
     4:55.14       52070972    ---   --   ---xx   ph1993-05-06d1t05.flac
     2:23.25       25284044    ---   --   ---xx   ph1993-05-06d1t06.flac
     4:48.49       50918492    ---   --   ---xx   ph1993-05-06d1t07.flac
    14:03.06      148719356    ---   --   ---xx   ph1993-05-06d1t08.flac
    12:06.20      128113484    ---   --   ---xx   ph1993-05-06d1t09.flac
     3:09.30       33410204    ---   --   ---xx   ph1993-05-06d2t01.flac
     3:35.60       38067164    ---   --   ---xx   ph1993-05-06d2t02.flac
     4:05.65       43370924    ---   --   ---xx   ph1993-05-06d2t03.flac
     5:59.03       63334700    ---   --   ---xx   ph1993-05-06d2t04.flac
     5:34.48       59030540    ---   --   ---xx   ph1993-05-06d2t05.flac
    19:43.20      208728284    ---   --   ---xx   ph1993-05-06d2t06.flac
     6:44.52       71387948    ---   --   ---xx   ph1993-05-06d2t07.flac
     3:51.46       40856636    ---   --   ---xx   ph1993-05-06d2t08.flac
     2:51.14       30197372    ---   --   ---xx   ph1993-05-06d2t09.flac
     9:56.09      105155612    ---   --   ---xx   ph1993-05-06d3t01.flac
     7:10.49       75967292    ---   --   ---xx   ph1993-05-06d3t02.flac
     4:48.34       50883212    ---   --   ---xx   ph1993-05-06d3t03.flac
     2:43.51       28873196    ---   --   ---xx   ph1993-05-06d3t04.flac
     1:28.27       15586748    ---   --   ---xx   ph1993-05-06d3t05.flac
     2:50.46       30096236    ---   --   ---xx   ph1993-05-06d3t06.flac
     1:17.52       13705148    ---   --   ---xx   ph1993-05-06d3t07.flac
     4:45.68       50433980    ---   --   ---xx   ph1993-05-06d3t08.flac
     1:39.42       17562428    ---   --   ---xx   ph1993-05-06d3t09.flac
     1:45.37       18609068    ---   --   ---xx   ph1993-05-06d3t10.flac
     5:57.03       62981900    ---   --   ---xx   ph1993-05-06d3t11.flac
     3:21.02       35461148    ---   --   ---xx   ph1993-05-06d3t12.flac
   168:07.00     1779348120 B                     (totals for 30 files, 0.5636 overall compression ratio)

Show Checksums
all_ffp
ph1993-05-06d1t01.flac:cb1ea509bfb14efc5cbd21bdace6944a
ph1993-05-06d1t02.flac:4164b81a7d48852738cbc27b439d50ea
ph1993-05-06d1t03.flac:edccf1760e411f51d7df59878fb7ccaa
ph1993-05-06d1t04.flac:d7448b8495231865c7eebc8eab6e0bcf
ph1993-05-06d1t05.flac:ebc9a2f678fdef075bcb1b48cb1bbd1e
ph1993-05-06d1t06.flac:dc45100abfaaad9ffd21ac05d9aa2ebc
ph1993-05-06d1t07.flac:cd4ac78d752d397073906094f564945c
ph1993-05-06d1t08.flac:9543cea275e16482ac7b8d92b76fce3e
ph1993-05-06d1t09.flac:0863a4f52c2e63734513cdada310f570
ph1993-05-06d2t01.flac:f083100a9f9ba8ca518e3414961ee5a8
ph1993-05-06d2t02.flac:5926b011ef8ba710ccb35306dcbbea01
ph1993-05-06d2t03.flac:992335264f41d7cb2586382b21bcbd1e
ph1993-05-06d2t04.flac:9f33b3ca61b43e3db3ae35ce8b30b070
ph1993-05-06d2t05.flac:b09d7c578f83fe60eb8d9f53266be73e
ph1993-05-06d2t06.flac:04bc16e12534f7c4635260a45b09b85c
ph1993-05-06d2t07.flac:2e1274cece9f13a00e344e06e296df86
ph1993-05-06d2t08.flac:eac1d26ddb282506c51dd1656fdf64d5
ph1993-05-06d2t09.flac:f0ee3edcd9e1e0807671ae0ca3bf3599
ph1993-05-06d3t01.flac:6bfe7b39df1b6fd83ad8428dc1e6e1b9
ph1993-05-06d3t02.flac:38217589cead9e855126bdee3ed8bdec
ph1993-05-06d3t03.flac:dc83f59751d4868d9b09df67851147ed
ph1993-05-06d3t04.flac:f621fab53ddaa2945b25e80eed1973aa
ph1993-05-06d3t05.flac:75c01374e556da3b9429bb5d9c7091a6
ph1993-05-06d3t06.flac:c2876fb6ce586a916717a67c6b6f24b6
ph1993-05-06d3t07.flac:d3c5a77580935f534b567f56b20064a6
ph1993-05-06d3t08.flac:dacc7974187c229d9f98b874a60cdb24
ph1993-05-06d3t09.flac:614e6208458335af44575f39bb2217f5
ph1993-05-06d3t10.flac:df2c0fe43fdeba6c8e1f5e3ad3098182
ph1993-05-06d3t11.flac:1b44ee358a69d55082252b4b7b1455ee
ph1993-05-06d3t12.flac:9c20e92b248cae8246e683a1e82f2277
all_wav_md5
31eb2721fd751e8024bbece67300a83b *ph1993-05-06d1t01.wav
afc954c5d6beaa2a90a17b8581967f11 *ph1993-05-06d1t02.wav
24165c3f52ce28a974c82c7c88ab5e85 *ph1993-05-06d1t03.wav
acb1e1f3d2adb6820155b9a88de7b62d *ph1993-05-06d1t04.wav
dcb8e74ef51628fc7028088771461ac3 *ph1993-05-06d1t05.wav
d17a57dab15375122c3dcc48f1a036a6 *ph1993-05-06d1t06.wav
74cbe8b159093f1281f0d4be183bdea9 *ph1993-05-06d1t07.wav
ff40fdc0658658baf785acca616a917a *ph1993-05-06d1t08.wav
3595d42605a9e1ac23e009560274a76c *ph1993-05-06d1t09.wav
61bbe4be18385f182193c16f07f6ea1e *ph1993-05-06d2t01.wav
cc9bf31d100cb50cf8ef4d4254b75b20 *ph1993-05-06d2t02.wav
8d17a29a9a6c0b7f4d59bfa2c2dcd63b *ph1993-05-06d2t03.wav
234511c5b2496081b3bb1a5306776d1d *ph1993-05-06d2t04.wav
323e602e2f3ffab384df97afa916ce36 *ph1993-05-06d2t05.wav
60804b605ca2e7fba9667a8f97628310 *ph1993-05-06d2t06.wav
4a84aaa20d36418abeee1cc0542e52f4 *ph1993-05-06d2t07.wav
21026c2207fd521e18e22900b54a494a *ph1993-05-06d2t08.wav
2fe1ff05e0ab1dfbf1ab1d766405a504 *ph1993-05-06d2t09.wav
273d9e954bd6536880a043eea2bde492 *ph1993-05-06d3t01.wav
954f1da990ca1dc77fda7008c2078835 *ph1993-05-06d3t02.wav
c173830e3cf3825e08fb511b4b439b31 *ph1993-05-06d3t03.wav
3e96b6e68d06eec9a4a8014d5fd57f30 *ph1993-05-06d3t04.wav
bda21e547d4683ee874265e9e3704672 *ph1993-05-06d3t05.wav
c9d49a42fe2648f0f75c98ca59a749d1 *ph1993-05-06d3t06.wav
0a8609f17a2008f3982f4d25386c6dd5 *ph1993-05-06d3t07.wav
3034df82b8b0d5f58e4b729928d4a5fb *ph1993-05-06d3t08.wav
3a3e8620f9b19a08c7e91ba0bb1f9292 *ph1993-05-06d3t09.wav
2ba9df124984407909c61a63d562a51b *ph1993-05-06d3t10.wav
a44a826634633376bf145d2c0c8dbf78 *ph1993-05-06d3t11.wav
5b93c5a3ceef97e2815ab1a2b4e6e00a *ph1993-05-06d3t12.wav

Comments
Add Comment
Other Sources (comments)
SBD > DAT > CDR; Seeded by... (5) SBD > DAT @48kHz; Sony R500... (0) Set 1: FOB AKG 460 > D10;... (0)
Date User Comment