Browse Collections Artists Sources   Search Dates

Add Show    List Management    Help


Gov't Mule 04/18/07
Innsbrook Pavillion, Glen Allen, VA
Comments Add Comment    Source Collectors    Add to Collection    Add to Want List    History
Source # 86450 Other Sources
Entered by
Checksums flac.ffp
Disc Counts 2 / 2
Media Size
Date Circulated
Date Added
04/19/07
07/16/2007
Source Summary Source: B&K4022(ortf)>V3>744T (fob/dfc)
Transfer: Transfer: 744T>soundforge 7.0 (fades/resampling/dithering)>cd wave>flac 
Source Information - Download Text | Download Zip
Gov't Mule
April 18, 2007
Innsbrook Pavilion
Richmond, Va

**16 bit source**

Source: B&K4022(ortf)>V3>744T (fob/dfc)
Transfer: Transfer: 744T>soundforge 7.0 (fades/resampling/dithering)>cd wave>flac
Taped & transferred by Craig Davis

One Set:
Disc One:
01 Bad Man Walking
02 Streamline Woman
03 About To Rage
04 She Said She Said>
05 Tomorrow Never Knows
06 Birth Of The Mule
07 Million Miles From Yesterday
08 Unring The Bell*>
09 Blind Man In The Dark

Disc Two:
01 Brighter Days
02 Trane> Third Stone Tease>
03 Sin's A Good Man's Brother
04 32-20 Blues>
05 Drums
06 Time to Confess>
07 Mule>
08 Soulshine
Encore:
09 Going Out West>
10 Bang a Gong (Get it On)>
11 Going Out West

* w/ Shakedown Tease


length     expanded size   cdr  WAVE problems filename
     5:26.13       57537020    ---   --   ---xx   Mule2007-04-18d1t01.flac
     4:27.36       47183516    ---   --   ---xx   Mule2007-04-18d1t02.flac
     9:51.23      104306540    ---   --   ---xx   Mule2007-04-18d1t03.flac
     4:35.21       48559436    ---   --   ---xx   Mule2007-04-18d1t04.flac
     8:14.06       87155756    ---   --   ---xx   Mule2007-04-18d1t05.flac
     7:58.65       84472124    ---   --   ---xx   Mule2007-04-18d1t06.flac
     5:59.31       63400556    ---   --   ---xx   Mule2007-04-18d1t07.flac
     8:32.56       90448556    ---   --   ---xx   Mule2007-04-18d1t08.flac
    11:40.66      123635276    ---   --   ---xx   Mule2007-04-18d1t09.flac
     7:09.22       75727388    ---   --   ---xx   Mule2007-04-18d2t01.flac
     7:41.31       81393356    ---   --   ---xx   Mule2007-04-18d2t02.flac
     2:27.61       26074316    ---   --   ---xx   Mule2007-04-18d2t03.flac
     8:01.38       84937820    ---   --   ---xx   Mule2007-04-18d2t04.flac
    11:06.33      117560060    ---   --   ---xx   Mule2007-04-18d2t05.flac
     8:56.72       94719788    ---   --   ---xx   Mule2007-04-18d2t06.flac
    12:11.58      129084860    ---   --   ---xx   Mule2007-04-18d2t07.flac
     9:14.44       97829132    ---   --   ---xx   Mule2007-04-18d2t08.flac
     4:02.23       42742940    ---   --   ---xx   Mule2007-04-18d2t09.flac
     3:25.32       36237308    ---   --   ---xx   Mule2007-04-18d2t10.flac
     2:45.60       29247164    ---   --   ---xx   Mule2007-04-18d2t11.flac
   143:49.41     1522252912 B                     (totals for 20 files, 0.5203 overall compression ratio)
Show Checksums
flac.ffp
Mule2007-04-18d2t03.flac:f384b95a7a305ee0588eb2e7412c0c5c
Mule2007-04-18d1t02.flac:d5d3240af5b326791e8b389c2a4c3a0b
Mule2007-04-18d1t03.flac:2d4763c1a9a6648aec744819a6b55e3a
Mule2007-04-18d1t04.flac:c3878ce280edf7c1718e7917fda5943e
Mule2007-04-18d1t05.flac:b15bfa5522ab98e46f05975bf6d0c446
Mule2007-04-18d1t06.flac:eaa8f298d3a6bb7a9172fb3911410a2d
Mule2007-04-18d1t07.flac:61e31304571aaeb6698085c6b475b8c8
Mule2007-04-18d1t08.flac:53b5dabae7179835520aaba42299c2c7
Mule2007-04-18d1t09.flac:13ea8863e8aea8d827738fe12d1931b1
Mule2007-04-18d2t01.flac:984918b0c0b04ef700e262ed8a5dbeb9
Mule2007-04-18d2t02.flac:758e92c6425f88868c5cab3536bf022c
Mule2007-04-18d1t01.flac:b09bfb765fc4a40d82abd244595992cf
Mule2007-04-18d2t04.flac:f6a584b3613a6d55f3dacd2a412da417
Mule2007-04-18d2t05.flac:d402b77aab0e71aa25410898910e3cfc
Mule2007-04-18d2t06.flac:38520ca0aa22ce8d6a83db9c605fc9e4
Mule2007-04-18d2t07.flac:44e0ca7fc5f889fde8e9f1040335e906
Mule2007-04-18d2t08.flac:2fd51ff624ff01b74bef590aa9a20a14
Mule2007-04-18d2t09.flac:7782c1443fb9e03acc2cd34b07fef014
Mule2007-04-18d2t10.flac:4e21d4af60220afbb1a97090b08db22b
Mule2007-04-18d2t11.flac:3a437ac10c109aca966311af3deb647e

Comments
Add Comment
Other Sources (comments)
Source:... (0)
Date User Comment