Browse Collections Artists Sources   Search Dates

Add Show    List Management    Help


Phish 03/25/93
Santa Cruz Civic Auditorium, Santa Cruz, CA
Comments Add Comment    Source Collectors    Add to Collection    Add to Want List    History
Source # 86453 Other Sources
Entered by Ben Mohr
Checksums all_ffp , all_wav_md5
Disc Counts 2 / 3
Media Size
Date Circulated
Date Added
07/16/2007
07/16/2007
Source Summary AKG 460b/ck63 > Custom Pre-amp > Teac DA-P20 @48kHz; Tascam DA-20MKII > Tascam HD-P2 > WaveLab 5.01b (48>44.1kHz) > CDWav > FLAC; Taped by Tom McMinn; Transferred by Jason Sobel 
Source Information - Download Text | Download Zip
Phish
March 25, 1993
Santa Cruz Civic Auditorium
Santa Cruz, CA

source:
AKG 460b/ck63 > custom pre-amp > Teac DA-P20 (@ 48 kHz)

transfer:
Tascam DA-20MKII > Tascam HD-P2 > CF card > usb 2.0 > pc > WaveLab 5.01b (de-emphasis, fades, resample to 44.1 kHz) > CD Wave v1.95.1 > FLAC v1.1.4 (Level 8)

FLAC tags added with metaflac v1.1.4

recorded by Tom McMinn
transferred by Jason Sobel ([email protected])
seeded July 16, 2007

notes:
The original DAT recording was made with pre-emphasis.
The Waves Q10 Paragraphic EQ v5.0 plug-in was used to de-emphasize the recording.
The original 48 kHz .wav files from the DAT transfer have been archived, and are available upon request.
Big thanks to Dave Flaschner for letting me borrow his DAT tape!

Disc 1 - [76:09]
Set I
01 - [06:11] - Chalk Dust Torture
02 - [05:18] - Guelah Papyrus
03 - [08:16] - It's Ice
04 - [11:05] - Possum
05 - [03:49] - Bouncing Around the Room
06 - [11:02] - Stash
07 - [04:56] - Glide
08 - [05:57] - Rift
09 - [03:46] - Horn
10 - [03:51] - Magilla
11 - [11:58] - Run Like an Antelope

Disc 2 - [45:43]
Set II
01 - [00:44] - intro
02 - [03:48] - Axilla
03 - [06:09] - The Curtain >
04 - [05:21] - Sample in a Jar
05 - [04:16] - Uncle Pen
06 - [12:30] - Colonel Forbin's Ascent ->
07 - [02:26] - Kung ->
08 - [03:31] - Icculus ->
09 - [06:58] - The Famous Mockingbird

Disc 3 - [40:36]
Set II continued
01 - [06:22] - The Wedge
02 - [09:15] - Mike's Song >
03 - [02:26] - I Am Hydrogen >
04 - [09:41] - Weekapaug Groove
05 - [04:27] - Golgi Apparatus
06 - [01:34] - encore break
07 - [02:02] - My Sweet One
08 - [03:07] - Big Ball Jam
09 - [01:41] - Sweet Adeline

show notes:
Possum included Simpsons and Oom Pa Pa Signals.
Magilla (first since May 8, 1992, or 113 shows) included a tease of the theme from Benny Hill.
Antelope and Weekapaug included Ob La Di, Ob La Da teases.
Icculus was played for the first time since May 2, 1992 (118 shows).
Sweet Adeline was performed without microphones.

--------------------------------------------------------------------------------------------------

SHNtool output:

    length     expanded size   cdr  WAVE problems filename
     6:11.27       65507948    ---   --   ---xx   ph1993-03-25d1t01.flac
     5:17.54       56045852    ---   --   ---xx   ph1993-03-25d1t02.flac
     8:15.44       87421532    ---   --   ---xx   ph1993-03-25d1t03.flac
    11:04.66      117284876    ---   --   ---xx   ph1993-03-25d1t04.flac
     3:48.42       40318028    ---   --   ---xx   ph1993-03-25d1t05.flac
    11:01.65      116753324    ---   --   ---xx   ph1993-03-25d1t06.flac
     4:56.18       52256780    ---   --   ---xx   ph1993-03-25d1t07.flac
     5:57.11       63000716    ---   --   ---xx   ph1993-03-25d1t08.flac
     3:46.16       39904076    ---   --   ---xx   ph1993-03-25d1t09.flac
     3:51.12       40776668    ---   --   ---xx   ph1993-03-25d1t10.flac
    11:58.20      126702284    ---   --   ---xx   ph1993-03-25d1t11.flac
     0:43.65        7738124    ---   --   ---xx   ph1993-03-25d2t01.flac
     3:47.60       40183964    ---   --   ---xx   ph1993-03-25d2t02.flac
     6:09.09       65112812    ---   --   ---xx   ph1993-03-25d2t03.flac
     5:21.14       56657372    ---   --   ---xx   ph1993-03-25d2t04.flac
     4:15.53       45106700    ---   --   ---xx   ph1993-03-25d2t05.flac
    12:30.14      132332972    ---   --   ---xx   ph1993-03-25d2t06.flac
     2:25.56       25709756    ---   --   ---xx   ph1993-03-25d2t07.flac
     3:30.68       37203980    ---   --   ---xx   ph1993-03-25d2t08.flac
     6:58.36       73819916    ---   --   ---xx   ph1993-03-25d2t09.flac
     6:21.74       67382492    ---   --   ---xx   ph1993-03-25d3t01.flac
     9:15.28       97967900    ---   --   ---xx   ph1993-03-25d3t02.flac
     2:25.55       25707404    ---   --   ---xx   ph1993-03-25d3t03.flac
     9:40.71      102479036    ---   --   ---xx   ph1993-03-25d3t04.flac
     4:27.14       47131772    ---   --   ---xx   ph1993-03-25d3t05.flac
     1:34.03       16588700    ---   --   ---xx   ph1993-03-25d3t06.flac
     2:02.10       21544364    ---   --   ---xx   ph1993-03-25d3t07.flac
     3:07.20       33033884    ---   --   ---xx   ph1993-03-25d3t08.flac
     1:41.25       17875244    ---   --   ---xx   ph1993-03-25d3t09.flac
   162:28.00     1719548476 B                     (totals for 29 files, 0.5031 overall compression ratio)


Show Checksums
all_ffp
ph1993-03-25d1t01.flac:1aa9734a1ef6a4d82d146f74dee9e033
ph1993-03-25d1t02.flac:016aba755c35ab8aa44ee2dcc6429d93
ph1993-03-25d1t03.flac:804462600d0357d8c19a7b7f9a919d38
ph1993-03-25d1t04.flac:e54ead7f6ebe17f11b3c22d98755df9a
ph1993-03-25d1t05.flac:90c5553c02f84cca7e787b7e5cd638b4
ph1993-03-25d1t06.flac:50ade75cc8efc8e9d731111f3bccd9b2
ph1993-03-25d1t07.flac:75012efe543bbfd77e32c9fb4cd3302c
ph1993-03-25d1t08.flac:5234c7277b030934be57c1f3b9bbe59d
ph1993-03-25d1t09.flac:ce3031aa8e5178b635289e7050dba5b9
ph1993-03-25d1t10.flac:0137f9c2a602e2eae4a0151654b39d39
ph1993-03-25d1t11.flac:4b2da91414a043e5560a8f5d11e9a5fa
ph1993-03-25d2t01.flac:d955ca3c3724b6fbca88f2d0a761e711
ph1993-03-25d2t02.flac:0f2ebcf1e234e05d4140f2f5fa0a458e
ph1993-03-25d2t03.flac:61b67c418d1ddc87e2c1a396567ec3b8
ph1993-03-25d2t04.flac:336f343e0c7453934ec26c72c106b382
ph1993-03-25d2t05.flac:b27efad548bd8132ed7e0daeaf389594
ph1993-03-25d2t06.flac:5abd3260578d1be2876ef16e1266f867
ph1993-03-25d2t07.flac:05955edf15451e77d5bb44b8c3711c9e
ph1993-03-25d2t08.flac:acc6d82bb4a7d73bb15b65a4dd4fa554
ph1993-03-25d2t09.flac:f637ba6757f7a1877d345f0645760fa2
ph1993-03-25d3t01.flac:38ece9845b2b958793a4fa1aa6db820f
ph1993-03-25d3t02.flac:f37b89d089aebf118fc75ff77101baba
ph1993-03-25d3t03.flac:ad07f59b6ac63278383b611984c51ac6
ph1993-03-25d3t04.flac:ff58cd8028f1d83853c42d8a2f4a8822
ph1993-03-25d3t05.flac:2167455f7e9c61631cbc585314825924
ph1993-03-25d3t06.flac:5fc87bed56eda83c11d06b0eb0fe6120
ph1993-03-25d3t07.flac:31b1225810cb01bf8431084cdd8d3f44
ph1993-03-25d3t08.flac:8351d319fe19df931c1271ac9cf483fd
ph1993-03-25d3t09.flac:ca1931570ea088f16c6da6a6f8b31fd5
all_wav_md5
18772e647dca0a4136c4a43725d37424 *ph1993-03-25d1t01.wav
95965594c26b5b10bf5bea5123e4ad0a *ph1993-03-25d1t02.wav
e419ee0a4e1c2d0c79bb3cbb09458e9a *ph1993-03-25d1t03.wav
2840065486f1e17e6d31294986f4b157 *ph1993-03-25d1t04.wav
1d49e208f22e12ee20115996283b8200 *ph1993-03-25d1t05.wav
20cfc28a26a3ed0194058ae13edaa9ad *ph1993-03-25d1t06.wav
bfb90eaacee6ce542a4855574056aca7 *ph1993-03-25d1t07.wav
6df9bce3144b2b03b359a67039a7e5b8 *ph1993-03-25d1t08.wav
ddc241b85c714a6be9ff9130a82e449d *ph1993-03-25d1t09.wav
d56f0f39df56fdd198730e4a7c01500f *ph1993-03-25d1t10.wav
c5cae2beb203c1329f47b7a6b78e8f7a *ph1993-03-25d1t11.wav
ddc4d8d4efc431ad272b6df5cf3d2980 *ph1993-03-25d2t01.wav
f939e88afebb9853abd648a15e31d168 *ph1993-03-25d2t02.wav
d7d0f4e780428e4aa4801f4511d85dda *ph1993-03-25d2t03.wav
092d6d2f49288684cad612d35be49fb5 *ph1993-03-25d2t04.wav
385b4f517f1a18a1feedeb78a3e29a45 *ph1993-03-25d2t05.wav
ae90dbb3f2afbd8bebf13ae586e289ec *ph1993-03-25d2t06.wav
c0b9c23a52c09b1ae4270b207f6fd960 *ph1993-03-25d2t07.wav
53bfe5dabf6877c08d4e8590566bb0e6 *ph1993-03-25d2t08.wav
585d5f8a588875e7bb0074ab6e1878f9 *ph1993-03-25d2t09.wav
6677e48c71aea7d7711b43242a06223e *ph1993-03-25d3t01.wav
f00f157ad17ff0dbf6b0e507112a4faa *ph1993-03-25d3t02.wav
630a6489acfc2408cc844ff7434a3596 *ph1993-03-25d3t03.wav
8b2bab5f3eadf14223923d623c8a9ea4 *ph1993-03-25d3t04.wav
d56b8e73d99a854b13b62160e5da2358 *ph1993-03-25d3t05.wav
c81a7045460d34908f928c73a7697e76 *ph1993-03-25d3t06.wav
6afedd6b94faa2dcc1073afee5df34bf *ph1993-03-25d3t07.wav
3550b58a5c915dc76f748bfaab780466 *ph1993-03-25d3t08.wav
30d452b39248cb3ce0070f8f4a69a175 *ph1993-03-25d3t09.wav

Comments
Add Comment
Other Sources (comments)
FOB Schoeps CMC5/mk4;... (2) FOB Schoeps CMC5/mk4 >... (1)
Date User Comment
07/24/2007 jasonsobel just to note. this source was originally torrented with the incorrect source info. in the original distribution, the text file had the mics listed as "AKG 460b/ck61".
however, the correct source info should read "AKG 460b/ck63"