Browse Collections Artists Sources   Search Dates

Add Show    List Management    Help


Phish 04/01/93
Roseland Theater, Portland, OR
Comments Add Comment    Source Collectors    Add to Collection    Add to Want List    History
Source # 86483 Other Sources
Entered by Ben Mohr
Checksums all_ffp , all_wav_md5
Disc Counts 2 / 2
Media Size
Date Circulated
Date Added
07/17/2007
07/17/2007
Source Summary FOB Neumann km140 > Sonosax SX-M2 > Sony D-10 II Pro @48kHz; Tascam DA-20mkII > Tascam HD-P2 > WaveLab 5.01b (48>44.1kHz) > CDWav > FLAC; Taped by Jim Cowan; Transferred by Jason Sobel 
Source Information - Download Text | Download Zip
Phish
April 1, 1993
Roseland Theater
Portland, OR

source:
(FOB) Neumann km140 > Sonosax SX-M2 > Sony D-10 II pro (@ 48 kHz)

transfer:
Tascam DA-20MKII > Tascam HD-P2 > CF card > usb 2.0 > pc > WaveLab 5.01b (de-emphasis, resample to 44.1 kHz, fades, patches) > CD Wave v1.95.1 > FLAC v1.1.4 (Level 8)

FLAC tags added with metaflac v1.1.4

recorded by Jim Cowan
transferred by Jason Sobel ([email protected])
seeded July 17, 2007

notes:
The original DAT recording was made with pre-emphasis.
The Waves Q10 Paragraphic EQ v5.0 plug-in was used to de-emphasize the recording.
The original 48 kHz .wav files from the DAT transfer have been archived, and are available upon request.
Big thanks to Dave Flaschner for letting me borrow his DATs!

Disc 1 - [77:55]
Set I
01 - [00:44] - intro
02 - [04:31] - Llama
03 - [05:39] - Guelah Papyrus
04 - [06:12] - Rift
05 - [11:20] - Stash
06 - [08:43] - The Squirming Coil
07 - [07:23] - My Friend My Friend
08 - [03:54] - Paul and Silas
09 - [14:18] - Fluffhead
10 - [02:36] - Lawn Boy
11 - [12:34] - Run Like an Antelope

Disc 2 - [79:41]
Set II
01 - [04:18] - Axilla
02 - [06:10] - The Curtain >
03 - [11:45] - Possum
04 - [05:33] - Fee >
05 - [07:12] - Ya Mar
06 - [14:28] - Tweezer
07 - [02:23] - Poor Heart
08 - [03:18] - Big Ball Jam
09 - [01:55] - HYHU >
10 - [08:45] - Love You >
11 - [02:21] - HYHU
12 - [04:20] - Cavern
13 - [03:10] - encore break
14 - [01:07] - Carolina
15 - [02:56] - Tweezer Reprise

show notes:
I Feel the Earth Move and Barracuda teases were heard in this Antelope.
Carolina was performed without microphones.
After the Big Ball Jam, Trey introduced Fishman as Neil Young.
Fishman responded by singing a quiet line from Neil Young's Needle and the Damage Done before launching into Love You.

tech notes:
There were major drop-outs on the DAT during "Tweezer", and a small one during "Love You"
The drop-outs were patched with the following source:
TOA K1->Denon DTR-80p
http://db.etree.org/shn/25593

The drop-outs were at the following locations:
Tweezer: [03:04] to [03:08] and [07:46] to [13:39] and [13:55.3] to [13:55.5]
Love You: [03:55.7] to [03:55.9]

--------------------------------------------------------------------------------------------------

SHNtool output:

    length     expanded size   cdr  WAVE problems filename
     0:44.34        7841612    ---   --   ---xx   ph1993-04-01d1t01.flac
     4:31.11       47830316    ---   --   ---xx   ph1993-04-01d1t02.flac
     5:38.65       59776124    ---   --   ---xx   ph1993-04-01d1t03.flac
     6:12.18       65663180    ---   --   ---xx   ph1993-04-01d1t04.flac
    11:20.00      119952044    ---   --   ---xx   ph1993-04-01d1t05.flac
     8:43.26       92318396    ---   --   ---xx   ph1993-04-01d1t06.flac
     7:22.46       78077036    ---   --   ---xx   ph1993-04-01d1t07.flac
     3:54.36       41362316    ---   --   ---xx   ph1993-04-01d1t08.flac
    14:17.50      151292444    ---   --   ---xx   ph1993-04-01d1t09.flac
     2:36.19       27563132    ---   --   ---xx   ph1993-04-01d1t10.flac
    12:33.70      132993884    ---   --   ---xx   ph1993-04-01d1t11.flac
     4:18.34       45591212    ---   --   ---xx   ph1993-04-01d2t01.flac
     6:09.68       65251580    ---   --   ---xx   ph1993-04-01d2t02.flac
    11:45.21      124411436    ---   --   ---xx   ph1993-04-01d2t03.flac
     5:32.59       58703612    ---   --   ---xx   ph1993-04-01d2t04.flac
     7:12.13       76235420    ---   --   ---xx   ph1993-04-01d2t05.flac
    14:28.22      153166988    ---   --   ---xx   ph1993-04-01d2t06.flac
     2:22.60       25189964    ---   --   ---xx   ph1993-04-01d2t07.flac
     3:17.74       34924892    ---   --   ---xx   ph1993-04-01d2t08.flac
     1:55.01       20288396    ---   --   ---xx   ph1993-04-01d2t09.flac
     8:44.47       92544188    ---   --   ---xx   ph1993-04-01d2t10.flac
     2:20.46       24804236    ---   --   ---xx   ph1993-04-01d2t11.flac
     4:20.13       45894620    ---   --   ---xx   ph1993-04-01d2t12.flac
     3:09.70       33504284    ---   --   ---xx   ph1993-04-01d2t13.flac
     1:06.62       11788268    ---   --   ---xx   ph1993-04-01d2t14.flac
     2:55.59       31008812    ---   --   ---xx   ph1993-04-01d2t15.flac
   157:35.49     1667978392 B                     (totals for 26 files, 0.5646 overall compression ratio)

Show Checksums
all_ffp
ph1993-04-01d1t01.flac:5f87b6a446ef9a1c239db040763b27c8
ph1993-04-01d1t02.flac:9300e44ce06c5408ade625d4255934dc
ph1993-04-01d1t03.flac:735c6c92fae4b0c26ce8f3408b96d4fa
ph1993-04-01d1t04.flac:c73db1889864d5e56e3532cf8878442e
ph1993-04-01d1t05.flac:f7aaa7ea43803fb837c558f1566ee99a
ph1993-04-01d1t06.flac:91d9debf0dcd05bc54ec44e58d8400be
ph1993-04-01d1t07.flac:4e2edb6137fb6c95b9264f714e274da2
ph1993-04-01d1t08.flac:e02b861b70f4ddb582bebbb8d17a941d
ph1993-04-01d1t09.flac:d3db4770c55545535796ddf5541ec89a
ph1993-04-01d1t10.flac:fe0e0b45a1f45dc201118321b6aad920
ph1993-04-01d1t11.flac:358979f8c10ad0964eb02fd33052e1e9
ph1993-04-01d2t01.flac:c69849c828810069562c9a506558e878
ph1993-04-01d2t02.flac:e28bc8ea1d3b96da804c009d8bc7b8f0
ph1993-04-01d2t03.flac:72149ea02ee665f5a7083eca10e06783
ph1993-04-01d2t04.flac:123a2c25b35201d4b94876954a03c5f7
ph1993-04-01d2t05.flac:89554003515b22d05cde9668d63f6936
ph1993-04-01d2t06.flac:e630877ade6855a8729c60d009cf3a0e
ph1993-04-01d2t07.flac:0b98d4330d1ea978a33fe1259229621c
ph1993-04-01d2t08.flac:1e52b8ab698b76e0b6de8b03daa33e29
ph1993-04-01d2t09.flac:4cce1587674e811540613f824a601c13
ph1993-04-01d2t10.flac:345330000ec7a3a12cc4938733fc15d4
ph1993-04-01d2t11.flac:6d3285c06ed1e6f1181cbd9507e2a90f
ph1993-04-01d2t12.flac:f43b46c06727346e941e2dcf114e98f5
ph1993-04-01d2t13.flac:9417727514e33c6380a0fdb0a44af229
ph1993-04-01d2t14.flac:fe4e7aa032b266990a54592394a027f5
ph1993-04-01d2t15.flac:f9172574658f63b69b57d5fcb17122f8
all_wav_md5
982b321116ac2b3a8486dff1aa240530 *ph1993-04-01d1t01.wav
3d92c0d091241e7ddd27fccb06067a6e *ph1993-04-01d1t02.wav
066695dbb834e50cc812df530ec12862 *ph1993-04-01d1t03.wav
264e9654df7c75fdd60fec1b747ee28d *ph1993-04-01d1t04.wav
6d3f9cb4f239707585ffa9b7f558f75d *ph1993-04-01d1t05.wav
752d99eaf8b7d062a0ac79bc855ac0b4 *ph1993-04-01d1t06.wav
a6c4decb056c046ec71d09a4f1081419 *ph1993-04-01d1t07.wav
6affbaa5287d5d8e6145afdd3a1682fb *ph1993-04-01d1t08.wav
2797d81003cde114b5dedb3815498459 *ph1993-04-01d1t09.wav
a188af22bf6b64973de93bfb88e6f415 *ph1993-04-01d1t10.wav
d8c11ad4b398958c9d13b9347e13663d *ph1993-04-01d1t11.wav
dfacb3fa420fce8ec4f7e1b72f01c927 *ph1993-04-01d2t01.wav
b5661eec34cd6220bb64d246b680b10b *ph1993-04-01d2t02.wav
37cc81798d6c82d1e99e9390091546ee *ph1993-04-01d2t03.wav
682f17e7dee266e4e9b134dfb70ea74f *ph1993-04-01d2t04.wav
adc7d5714085b976c90ee0e8eb3c8a1b *ph1993-04-01d2t05.wav
3e621b0c217df852764f15612a2e9cce *ph1993-04-01d2t06.wav
b4bb85f0736926d3d5349f68ed559543 *ph1993-04-01d2t07.wav
e6dcc1240c0222f0525a89442d1c588a *ph1993-04-01d2t08.wav
0febd46e488b9949f1e67b35679daa88 *ph1993-04-01d2t09.wav
df86d6328cd53e3b840436b3762ba801 *ph1993-04-01d2t10.wav
d235545aa80025618abdfbfa0082ef5b *ph1993-04-01d2t11.wav
55ea8ad3dd10258e5c8a4d7ac2f3229b *ph1993-04-01d2t12.wav
802a5c0e5fb87abcac90eb2dab692b21 *ph1993-04-01d2t13.wav
4cd5403e0aff46d93ac02d2f28923032 *ph1993-04-01d2t14.wav
f8175f9580c7221c61732b6181ea539c *ph1993-04-01d2t15.wav

Comments
Add Comment
Other Sources (comments)
TOA K1 > Denon DTR-80p; DAT... (1)
Date User Comment