Browse Collections Artists Sources   Search Dates

Add Show    List Management    Help


Phish 02/22/03
US Bank Arena, Cincinnati, OH
Comments Add Comment    Source Collectors    Add to Collection    Add to Want List    History
Source # 86563 Other Sources
Entered by Ben Mohr
Checksums all_ffp , all_wav_md5
Disc Counts 2 / 3
Media Size
Date Circulated
Date Added
07/24/2007
07/24/2007
Source Summary FOB Schoeps mk4v > kcy > vms5u > Apogee AD-1000 -> Tascam DA-P1 @48kHz; Tascam DA-20MKII > Tascam HD-P2 > r8brain v1.9 (48>44.1kHz) > WaveLab 5.01b > CDWav > FLAC; Taped by Jim Charna; Transferred by Jason Sobel 
Source Information - Download Text | Download Zip
Phish
February 22, 2003
US Bank Arena
Cincinnati, OH

source:
(FOB) Schoeps mk4v > kcy > vms5u > Apogee AD-1000 -> Tascam DA-P1 (@ 48 kHz)

transfer:
Tascam DA-20MKII > Tascam HD-P2 > CF card > usb 2.0 > pc > r8brain v1.9 (resample to 44.1 kHz) > WaveLab 5.01b (fades) > CD Wave v1.95.1 > FLAC v1.1.4 (Level 8)

FLAC tags added with metaflac v1.1.4

recorded by Jim Charna
transferred by Jason Sobel ([email protected])
seeded July 24, 2007

notes:
the 48kHz files from the DAT transfer have been archived, and are available upon request.
Big thanks to Dave Flaschner for letting me borrow his DATs!

Disc 1 - [78:13]
Set I
01 - [04:38] - The Sloth
02 - [04:33] - Dogs Stole Things
03 - [12:37] - Piper ->
04 - [08:20] - Weekapaug Groove
05 - [05:00] - Dirt
06 - [09:29] - Scent of a Mule
07 - [20:48] - Walls of the Cave
08 - [07:13] - Mist
09 - [05:35] - Sample In a Jar

Disc 2 - [74:49]
Set II
01 - [01:16] - intro
02 - [11:02] - Tube
03 - [26:43] - Bathtub Gin
04 - [08:23] - Friday
05 - [18:30] - David Bowie
06 - [08:54] - Bug

Disc 3 - [11:53]
Set II continued
01 - [03:34] - encore break
02 - [08:19] - Suzy Greenberg

--------------------------------------------------------------------------------------------------

SHNtool output:

    length     expanded size   cdr  WAVE problems filename
     4:38.06       49053356    ---   --   ---xx   ph2003-02-22d1t01.flac
     4:32.49       48096092    ---   --   ---xx   ph2003-02-22d1t02.flac
    12:36.54      133485452    ---   --   ---xx   ph2003-02-22d1t03.flac
     8:20.15       88235324    ---   --   ---xx   ph2003-02-22d1t04.flac
     5:00.08       52938860    ---   --   ---xx   ph2003-02-22d1t05.flac
     9:28.50      100312844    ---   --   ---xx   ph2003-02-22d1t06.flac
    20:47.50      220088444    ---   --   ---xx   ph2003-02-22d1t07.flac
     7:13.32       76456508    ---   --   ---xx   ph2003-02-22d1t08.flac
     5:35.36       59178716    ---   --   ---xx   ph2003-02-22d1t09.flac
     1:16.24       13462892    ---   --   ---xx   ph2003-02-22d2t01.flac
    11:01.64      116750972    ---   --   ---xx   ph2003-02-22d2t02.flac
    26:43.21      282818636    ---   --   ---xx   ph2003-02-22d2t03.flac
     8:23.03       88736300    ---   --   ---xx   ph2003-02-22d2t04.flac
    18:29.64      195778172    ---   --   ---xx   ph2003-02-22d2t05.flac
     8:54.23       94251740    ---   --   ---xx   ph2003-02-22d2t06.flac
     3:33.73       37744940    ---   --   ---xx   ph2003-02-22d3t01.flac
     8:19.37       88110668    ---   --   ---xx   ph2003-02-22d3t02.flac
   164:55.09     1745499916 B                     (totals for 17 files, 0.5279 overall compression ratio)
Show Checksums
all_ffp
ph2003-02-22d1t01.flac:7ac60ef8d4b57f960f66a59c604e0061
ph2003-02-22d1t02.flac:d4d8c644c3c9ff0391e8e32bea689a1b
ph2003-02-22d1t03.flac:533d388973333098d45043ef354ec4d7
ph2003-02-22d1t04.flac:f541e2c40e4cd9ecda72b7f9ee2939a4
ph2003-02-22d1t05.flac:e411444a2f813735485518cb761f0ff4
ph2003-02-22d1t06.flac:6c45dc365033c7994f4be02b38fad96c
ph2003-02-22d1t07.flac:c92431e71581b1bbfc6fcc25dd572625
ph2003-02-22d1t08.flac:9ea8fbdb2d841a5b628c29f412a5c7e8
ph2003-02-22d1t09.flac:2b9d580876419152d6d6d24b7762ad36
ph2003-02-22d2t01.flac:1e64cfb9622630d5dfc2360e9a823492
ph2003-02-22d2t02.flac:17bcc99092b61ec1be59ab9f21440ae8
ph2003-02-22d2t03.flac:cf72379c81108db6d53084c842866532
ph2003-02-22d2t04.flac:33d902ac781b929b8ceec27d9028bc4f
ph2003-02-22d2t05.flac:d6f2914467968dfb349ce4007fa73e7f
ph2003-02-22d2t06.flac:0cb8c05527e1be8791ce652c020129d2
ph2003-02-22d3t01.flac:e2d57f0e9f4fceed90fcef5dbc63c823
ph2003-02-22d3t02.flac:d0a91f4f2beac39d2c651f410e87b3d2
all_wav_md5
76dada5764c58b7bfbb036596f5837ba *ph2003-02-22d1t01.wav
a82c803f314dfb04c7ea29ed6ec896fb *ph2003-02-22d1t02.wav
914ce0eedcf7f4405e00c9aa10f89718 *ph2003-02-22d1t03.wav
22844b332ab31aba9823437651e9bd24 *ph2003-02-22d1t04.wav
3cebf795452f5a330c8c8b60982f7c13 *ph2003-02-22d1t05.wav
66ad4bf2c38846f385fb2b9279dc790f *ph2003-02-22d1t06.wav
cc393850a4306e32f1b44308acd7b4c8 *ph2003-02-22d1t07.wav
df299b17600613cfff3dbed93b482eff *ph2003-02-22d1t08.wav
a5d0223a04c9199e572dc56289266766 *ph2003-02-22d1t09.wav
c7ef986d3f781e77ac28bf1d1bd975af *ph2003-02-22d2t01.wav
4aeaa7313ddc18e5c81429352ec7ab13 *ph2003-02-22d2t02.wav
dfd5c0cfc202f25301fb4c49f4306aef *ph2003-02-22d2t03.wav
ecc2a234180892ee79b6216af71f14b5 *ph2003-02-22d2t04.wav
d7b2df613a4d1299c05d67700cf1f408 *ph2003-02-22d2t05.wav
805eb9e53e35777e80658c26e7828ed9 *ph2003-02-22d2t06.wav
65fb265fc09b6297fb73cfd7d943f652 *ph2003-02-22d3t01.wav
d84c8f79773b768510e4b44490c143f7 *ph2003-02-22d3t02.wav

Comments
Add Comment
Other Sources (comments)
Schoeps mk41 > kc-y > VMS5U... (1) LivePhish SHN download;... (1) Schoeps CMC6/mk41 > Lunatec... (2) Neumann km150 (ORTF) >... (5) Neumann km150 (ORTF) >... (0) flac16 44.1khz ... (0)
Date User Comment