Browse Collections Artists Sources   Search Dates

Add Show    List Management    Help


Grateful Dead 10/22/71
Auditorium Theatre, Chicago, IL
Comments Add Comment    Source Collectors    Add to Collection    Add to Want List    History
Source # 86728 Other Sources
Entered by Matt Vernon
Checksums ffp , flac-md5
Disc Counts 1 / 1
Media Size
Date Circulated
Date Added
08/09/2007
08/09/2007
Source Summary flac16; Set 2 only, Recording Info: SBD -> Master Reel -> Cassette -> Dat (48k) Transfer Info: Dat (Sony R500) -> Behringer Ultramatch SRC2000 -> Samplitude Professional v9.11 -> FLAC All Transfers and Mastering By Charlie Miller 
  Archive
Source Information - Download Text | Download Zip
Grateful Dead - October 22, 1971
Auditorium Theatre - Chicago, IL
**Set 2 ONLY**

Recording Info:
SBD -> Master Reel -> Cassette -> Dat (48k)

Transfer Info:
Dat (Sony R500) -> Behringer Ultramatch SRC2000 ->
Samplitude Professional v9.11 -> FLAC
(1 Disc Audio / 1 Disc FLAC)

All Transfers and Mastering By Charlie Miller
[email protected]
July 29, 2007

Notes:
-- Tape flip 1:30 into d2t06

Set 2:
d2t01 - Ramble On Rose
d2t02 - Cumberland Blues
d2t03 - Cryptical Envelopment ->
d2t04 - Drums ->
d2t05 - The Other One ->
d2t06 - Cryptical Envelopment ->
d2t07 - Deal
d2t08 - Sugar Magnolia
d2t09 - Casey Jones ->
d2t10 - Johnny B. Goode


SHNTOOL OUTPUT:
length expanded size cdr WAVE problems filename
6:43.54 71216252 --- -- ---xx gd71-10-22d2t01.flac
7:00.10 74111564 --- -- ---xx gd71-10-22d2t02.flac
2:08.51 22699196 --- -- ---xx gd71-10-22d2t03.flac
5:27.72 57852188 --- -- ---xx gd71-10-22d2t04.flac
18:11.66 192607676 --- -- ---xx gd71-10-22d2t05.flac
2:45.23 29160140 --- -- ---xx gd71-10-22d2t06.flac
7:42.33 81574460 --- -- ---xx gd71-10-22d2t07.flac
7:45.57 82160108 --- -- ---xx gd71-10-22d2t08.flac
5:56.32 62873708 --- -- ---xx gd71-10-22d2t09.flac
4:16.47 45268988 --- -- ---xx gd71-10-22d2t10.flac
67:58.70 719524280 B (totals for 10 files)
Show Checksums
ffp
gd71-10-22d2t01.flac:534154affdb19f0263a3cbb9cc74abd7
gd71-10-22d2t02.flac:dfe806ee9843d941fefb0ddbd0c6d6b6
gd71-10-22d2t03.flac:d5f66c780665e8e58c0802203a9c893e
gd71-10-22d2t04.flac:d5531fd43f8018191ffddead6db5dc42
gd71-10-22d2t05.flac:33bf46e1af4ba73e2f77a147fb6a7d12
gd71-10-22d2t06.flac:10bb29446dda0961ce99a86ae5a704e6
gd71-10-22d2t07.flac:1b545736f224f40f782604b8ead6fa68
gd71-10-22d2t08.flac:5d5625799b08e6050524f03e999048a9
gd71-10-22d2t09.flac:695144a6c0553fa8fd67b03811f3b10a
gd71-10-22d2t10.flac:33a891cc64334e39d6ab9e62a214c2c7
flac-md5
99cf79fcf16855e7a5be39535d8e1bd1 *gd71-10-22d2t01.flac
164877a7355565c8c7556a0ee8d74e20 *gd71-10-22d2t02.flac
f0f817d89821a8650c96d2873293f190 *gd71-10-22d2t03.flac
d88d892bcb3e92acf0b3cda4faf68fa2 *gd71-10-22d2t04.flac
9620cf0c623f3efdbca0d0926aa7bd71 *gd71-10-22d2t05.flac
4f45299fcf00d0d27d90e1dde1190040 *gd71-10-22d2t06.flac
c7a06ce9e768c586c95567e19dc469d1 *gd71-10-22d2t07.flac
c9d46458a71c60194981c5cf83222f31 *gd71-10-22d2t08.flac
7618e8dcef0cce977ee351941451ed20 *gd71-10-22d2t09.flac
7ee513bdddf6c9b744c33b5335082ba8 *gd71-10-22d2t10.flac

Comments
Add Comment
Other Sources (comments)
flac16; Recording... (0)
Date User Comment