Browse Collections Artists Sources   Search Dates

Add Show    List Management    Help


Grateful Dead 05/13/81
Providence Civic Center, Providence, RI
Comments Add Comment    Source Collectors    Add to Collection    Add to Want List    History
Source # 86780 Other Sources
Entered by Matt Vernon
Checksums flac-md5 , ffp
Disc Counts 2 / 3
Media Size
Date Circulated
Date Added
08/13/2007
08/13/2007
Source Summary flac16; Recording Info: SBD -> Master Cassette -> Reel -> Dat (48k) Transfer Info: Dat (Sony R500) -> Samplitude Professional v9.11 -> FLAC All Transfers and Mastering By Charlie Miller 
  Archive
Source Information - Download Text | Download Zip
Grateful Dead - May 13, 1981
Civic Center - Providence, RI

Recording Info:
SBD -> Master Cassette -> Reel -> Dat (48k)

Transfer Info:
Dat (Sony R500) -> Samplitude Professional v9.11 -> FLAC
(3 Discs Audio / 2 Discs FLAC)

All Transfers and Mastering By Charlie Miller
[email protected]
August 13, 2007

Patch Info:
Nakamichi 300 -> Master Cassette -> Dat -> CD (shnid=8918) supplies:
Space (0:05 - 3:51)
Iko Iko (0:07 - 0:41)

Notes:
-- Set 2 is seamless
-- Begining of Mama Tried missing
-- Spot of diginoise in last verse of Terrapin Station

Set 1:
d1t01 - Wang Dang Doodle tease
d1t02 - Jack Straw
d1t03 - Tennessee Jed ->
d1t04 - C C Rider
d1t05 - Friend Of The Devil
d1t06 - Mama Tried ->
d1t07 - Mexicali Blues
d1t08 - Bird Song ->
d1t09 - Let It Grow ->
d1t10 - Deal

Set 2:
d2t01 - Finiculi Finicula
d2t02 - Samson And Delilah
d2t03 - Terrapin Station ->
d2t04 - Lost Sailor ->
d2t05 - Saint Of Circumstance ->
d2t06 - Drums ->
d3t01 - Space ->
d3t02 - Iko Iko ->
d3t03 - I Need A Miracle ->
d3t04 - Stella Blue ->
d3t05 - Good Lovin'

Encore:
d3t06 - Brokedown Palace


SHNTOOL OUTPUT:
    length     expanded size   cdr  WAVE problems filename
     2:00.59       21306812    ---   --   -----   gd81-05-13d1t01.wav
     7:11.11       76054316    ---   --   -----   gd81-05-13d1t02.wav
     8:24.36       88990316    ---   --   -----   gd81-05-13d1t03.wav
     8:56.19       94595132    ---   --   -----   gd81-05-13d1t04.wav
     9:23.29       99381452    ---   --   -----   gd81-05-13d1t05.wav
     2:23.55       25354604    ---   --   -----   gd81-05-13d1t06.wav
     5:08.56       54462956    ---   --   -----   gd81-05-13d1t07.wav
     9:02.52       95731148    ---   --   -----   gd81-05-13d1t08.wav
    11:00.08      116442860    ---   --   -----   gd81-05-13d1t09.wav
     8:00.67       84829628    ---   --   -----   gd81-05-13d1t10.wav
     1:13.16       12914876    ---   --   -----   gd81-05-13d2t01.wav
     8:47.46       93071036    ---   --   -----   gd81-05-13d2t02.wav
    13:37.74      144292892    ---   --   -----   gd81-05-13d2t03.wav
     7:11.16       76066076    ---   --   -----   gd81-05-13d2t04.wav
     6:49.72       72316988    ---   --   -----   gd81-05-13d2t05.wav
     9:24.28       99555500    ---   --   -----   gd81-05-13d2t06.wav
     4:33.17       48197228    ---   --   -----   gd81-05-13d3t01.wav
     7:16.28       76976300    ---   --   -----   gd81-05-13d3t02.wav
     3:57.17       41846828    ---   --   -----   gd81-05-13d3t03.wav
    10:39.03      112726700    ---   --   -----   gd81-05-13d3t04.wav
     7:41.30       81391004    ---   --   -----   gd81-05-13d3t05.wav
     5:55.05       62633804    ---   --   -----   gd81-05-13d3t06.wav
   158:38.69     1679138456 B                     (totals for 22 files)
Show Checksums
flac-md5
910314bff8c0b0d39cea4caea48dcc0d *gd81-05-13d1t01.flac
2df249ce4a452f7a0d632678a25a0e2a *gd81-05-13d1t02.flac
25a5cf96d5a2f195d5e60c829f00cb6b *gd81-05-13d1t03.flac
edcd60555892dd69917d5418c56ad4c2 *gd81-05-13d1t04.flac
aecea484ccca204bda1374f0ed6e0830 *gd81-05-13d1t05.flac
34fe8698e94b8fbd29afda3895bfb6ab *gd81-05-13d1t06.flac
a35749bb7a43fe044f31884035eeeef5 *gd81-05-13d1t07.flac
dec785c0ab4065804f4b0a8ffb4e5011 *gd81-05-13d1t08.flac
0638ccc8499f6c031f880cda37ac0249 *gd81-05-13d1t09.flac
d3ec1458495ca732d1a413b25735efb6 *gd81-05-13d1t10.flac
c2fcb20e25f63b56ddf1635f81381196 *gd81-05-13d2t01.flac
2941d5e14b8818fa9e4bdc9868e575a5 *gd81-05-13d2t02.flac
f15cc02a2de6e8deb25db9eecc2288bf *gd81-05-13d2t03.flac
44ed65ad8fe2694296f1b0e186c46f0f *gd81-05-13d2t04.flac
ff75d30c8f9625db202b87cef68df298 *gd81-05-13d2t05.flac
fcb8aad6bdf6c1a54e6901b3019e4b0c *gd81-05-13d2t06.flac
0e50336966ad6ce46f2ed9696ae8c75f *gd81-05-13d3t01.flac
4d0c88298675608503423b3ba85ad8cb *gd81-05-13d3t02.flac
b6c7d6f52b315d5d3322d2aba9234cf3 *gd81-05-13d3t03.flac
f06267c70123d7db894634862edf15d8 *gd81-05-13d3t04.flac
c00aab25c73eca328ab6a85db30068d6 *gd81-05-13d3t05.flac
e4d3fd458ffe1811bffb670c862784a6 *gd81-05-13d3t06.flac
ffp
gd81-05-13d1t01.flac:241eea3deb5bf57c09405f2ebc1bad4e
gd81-05-13d1t02.flac:e758667ba7a3172a39ef9b3887529318
gd81-05-13d1t03.flac:5ab5b0056550009854776c97db2b1a2d
gd81-05-13d1t04.flac:7e0505dbacd112782527bae2300908ce
gd81-05-13d1t05.flac:479969070098dffd8e65ccb05d64f950
gd81-05-13d1t06.flac:e1430a6c193fb1d7d339e6506a7dbe5a
gd81-05-13d1t07.flac:123bac9e5fab17ee405b977fc5c41140
gd81-05-13d1t08.flac:9ab159718ba5cb80363f10a17cbaea68
gd81-05-13d1t09.flac:f1628d028669dcef4d9540892284aaa2
gd81-05-13d1t10.flac:382e05472a30db12c67147ca676e2ef5
gd81-05-13d2t01.flac:76ccd56cc5afc305e5cd5db2fb47be8f
gd81-05-13d2t02.flac:36cbe844c382c69860fd094db6979905
gd81-05-13d2t03.flac:3325830d9d2c259841f80fbe90b2663d
gd81-05-13d2t04.flac:2e0c7b0002417ad53348fb10637dda4b
gd81-05-13d2t05.flac:00a71eac69824d6b4557702ae33ff732
gd81-05-13d2t06.flac:e391ee31469d73bfe85d1beeb8ae4450
gd81-05-13d3t01.flac:da07a2c54a06aa1a35111666141cf9d0
gd81-05-13d3t02.flac:3d4e9d13ee95eb070873fd798d5eda4d
gd81-05-13d3t03.flac:98245bb00e5269681e231e965df48cac
gd81-05-13d3t04.flac:5bb67a36193d60599038ea30e61ee4e8
gd81-05-13d3t05.flac:6bf26916111ddb545019db2dd0183a2b
gd81-05-13d3t06.flac:183764d97515d3845873a33f9a05a7a0

Comments
Add Comment
Other Sources (comments)
Nak 300's>MC>DAT>CDR;... (2) flac16; Matrix 3... (0) DTS Audio 5.1 - SBD... (0) DVD-VA; (Video... (0) flac24; AUD: 3x... (1) flac16; AUD: 3x... (1) flac16; lineage: nak... (0) flac24; source: aud... (0) flac16; source: aud... (0) flac16; Source Info:... (0) flac24; Source Info:... (0)
Date User Comment