Browse Collections Artists Sources   Search Dates

Add Show    List Management    Help


Grateful Dead 05/15/81
Athletic Center - Rutgers University, Piscataway, NJ
Comments Add Comment    Source Collectors    Add to Collection    Add to Want List    History
Source # 86783 Other Sources
Entered by Matt Vernon
Checksums flac-md5 , ffp
Disc Counts 2 / 3
Media Size
Date Circulated
Date Added
08/13/2007
08/13/2007
Source Summary flac16; Recording Info: SBD -> Master Cassette -> Reel -> Dat (48k) Transfer Info: Dat (Sony D8) -> Samplitude Professional v9.11 -> FLAC All Transfers and Mastering By Charlie Miller  
  Archive
Source Information - Download Text | Download Zip
Grateful Dead - May 15, 1981
Rutgers Athletic Center - Piscataway, NJ

Recording Info:
SBD -> Master Cassette -> Reel -> Dat (48k)

Transfer Info:
Dat (Sony D8) -> Samplitude Professional v9.11 -> FLAC
(3 Discs Audio / 2 Discs FLAC)

All Transfers and Mastering By Charlie Miller
[email protected]
August 13, 2007

Patch Info:
(FOB) Sennheiser 421 -> Master Cassette -> Dat -> CD (shnid=9008) supplies:
Looks Like Rain (7:38 - End of Song)
Don't Ease Me In (0:10 - End Of Song)
Eyes Of The World (5:36 - 5:49)
Black Peter (9:02 - 9:11)

AKG CE-1 -> Master Cassette -> Dat -> CD (shnid=30113) supplies:
Don't Ease Me In (0:00 - 0:10)

Notes:
-- All disc changes are seamless

Set 1:
d1t01 - Tuning
d1t02 - Mississippi Half-Step Uptown Toodeloo ->
d1t03 - Franklin's Tower ->
d1t04 - New Minglewood Blues
d1t05 - Dire Wolf
d1t06 - Cassidy
d1t07 - Candyman ->
d1t08 - Little Red Rooster
d1t09 - Jack-A-Roe
d1t10 - El Paso
d2t01 - Ramble On Rose ->
d2t02 - Looks Like Rain ->
d2t03 - Don't Ease Me In

Set 2:
d2t04 - Scarlet Begonias ->
d2t05 - Fire On The Mountain ->
d2t06 - Estimated Prophet ->
d2t07 - Eyes Of The World ->
d2t08 - Drums ->
d2t09 - Space ->
d3t01 - Not Fade Away ->
d3t02 - Black Peter ->
d3t03 - Sugar Magnolia

Encore:
d3t04 - U.S. Blues


SHNTOOL OUTPUT:
    length     expanded size   cdr  WAVE problems filename
     0:42.03        7415900    ---   --   -----   gd81-05-15d1t01.wav
     8:57.46       94835036    ---   --   -----   gd81-05-15d1t02.wav
    10:06.43      106999580    ---   --   -----   gd81-05-15d1t03.wav
     7:07.73       75494540    ---   --   -----   gd81-05-15d1t04.wav
     3:33.32       37648508    ---   --   -----   gd81-05-15d1t05.wav
     5:53.62       62415068    ---   --   -----   gd81-05-15d1t06.wav
     7:09.59       75814412    ---   --   -----   gd81-05-15d1t07.wav
    10:08.17      107291228    ---   --   -----   gd81-05-15d1t08.wav
     5:12.18       55079180    ---   --   -----   gd81-05-15d1t09.wav
     5:43.30       60575804    ---   --   -----   gd81-05-15d1t10.wav
     8:15.74       87492092    ---   --   -----   gd81-05-15d2t01.wav
     8:48.47       93249788    ---   --   -----   gd81-05-15d2t02.wav
     3:21.35       35538764    ---   --   -----   gd81-05-15d2t03.wav
    11:48.00      124891244    ---   --   -----   gd81-05-15d2t04.wav
     9:00.53       95380700    ---   --   -----   gd81-05-15d2t05.wav
    11:46.56      124670156    ---   --   -----   gd81-05-15d2t06.wav
    10:04.18      106587980    ---   --   -----   gd81-05-15d2t07.wav
     9:23.16       99350876    ---   --   -----   gd81-05-15d2t08.wav
     5:27.38       57772220    ---   --   -----   gd81-05-15d2t09.wav
     8:36.23       91076540    ---   --   -----   gd81-05-15d3t01.wav
     9:10.71       97187036    ---   --   -----   gd81-05-15d3t02.wav
     9:27.43      100119980    ---   --   -----   gd81-05-15d3t03.wav
     5:14.60       55530764    ---   --   -----   gd81-05-15d3t04.wav
   175:01.17     1852417396 B                     (totals for 23 files)
Show Checksums
flac-md5
8b26e290b6a28e89ebbf7357fbc27169 *gd81-05-15d1t01.flac
6bfeec329a4e1ab94ff0e05afb3b719a *gd81-05-15d1t02.flac
04e09a8e4646a6fab97dac63b28b13c2 *gd81-05-15d1t03.flac
ef54421ba06cc9a239ef19952abac900 *gd81-05-15d1t04.flac
073bfd90b2252c630a9e8950fad8ec88 *gd81-05-15d1t05.flac
d228be601b39f5d9522caaab8765d820 *gd81-05-15d1t06.flac
2782d053f24b6791558ddca1c93465fd *gd81-05-15d1t07.flac
0d46bfc183e0759a5c9ffeceaafd2dae *gd81-05-15d1t08.flac
38a60d760a5e9cc3e4557804f7dfec13 *gd81-05-15d1t09.flac
c180f357f15b9ecf105f7fca97d75f51 *gd81-05-15d1t10.flac
087bc3d7358fa0a0b4371b33ee922bdc *gd81-05-15d2t01.flac
7f1d6477087f9df48531635811507103 *gd81-05-15d2t02.flac
fb87f9ec1d03792e9141008ff69c4806 *gd81-05-15d2t03.flac
f4f163007e8d6e4ca3ab65f6dc248bb5 *gd81-05-15d2t04.flac
218a9aac5d64bb520c92932761e19768 *gd81-05-15d2t05.flac
3c24f14902c4287e42974a32cc89be32 *gd81-05-15d2t06.flac
ed3b7f413b940e364013fabafd8827a5 *gd81-05-15d2t07.flac
4bdb32ef9365333fe32b5022d40c72a0 *gd81-05-15d2t08.flac
808080d7482c973f2414a250827a8e54 *gd81-05-15d2t09.flac
3434344e4e2e0360d9360828c084a00a *gd81-05-15d3t01.flac
523886901955ebb88809326ecd4c0ee4 *gd81-05-15d3t02.flac
a5e35295b131990011de791a64de2ea3 *gd81-05-15d3t03.flac
69fcaed8e70e5134bf3d9c8a5e5c310b *gd81-05-15d3t04.flac
ffp
gd81-05-15d1t01.flac:7243269174cbd51cc0b35b6adcb6f53a
gd81-05-15d1t02.flac:cf31332836812381d2255c8db2e463cc
gd81-05-15d1t03.flac:b81f2a2d5a3e12e63e3a69ca2a5ba2dd
gd81-05-15d1t04.flac:9c6987ae0e82ffd8f51048e9099a2a90
gd81-05-15d1t05.flac:4848a41fd0ec8de97c191d79972e50c0
gd81-05-15d1t06.flac:ce55cd29289652dd615b24f6ed3026ca
gd81-05-15d1t07.flac:7940f58b78c777dbe47ac6e2ea9735e5
gd81-05-15d1t08.flac:c5d20fef61336be0464c38199a11edfb
gd81-05-15d1t09.flac:4cd07609122a9b77f47cb46d98997f35
gd81-05-15d1t10.flac:29c5bd72c20d8093841c311a57620ac6
gd81-05-15d2t01.flac:6650fc06cba2f70ad9f78f86c0f702f4
gd81-05-15d2t02.flac:d5a596eab76fc2dd14f68b1b98489e61
gd81-05-15d2t03.flac:45662ec5b0c1e3df5186d5853093eef8
gd81-05-15d2t04.flac:b431f88ea26cb82cac6cae97ab0a7da3
gd81-05-15d2t05.flac:ed1752b3eeec495e024dd0b893f456a5
gd81-05-15d2t06.flac:22cb0f169eca7742244dc807b77068c7
gd81-05-15d2t07.flac:af0f12ee48dab01e9ac6529ab055ee09
gd81-05-15d2t08.flac:860868f9b4e3bea7dc36673b080e31f0
gd81-05-15d2t09.flac:81cf9d21943f0e5fced2eba268a23535
gd81-05-15d3t01.flac:f4be2a000e8ae88e911a5ccfaa52ee27
gd81-05-15d3t02.flac:e916f7361f1dc66e23d1519f60a001a2
gd81-05-15d3t03.flac:b46b1616f6df6b49d0efb195c7df4a53
gd81-05-15d3t04.flac:44728b32b8d9e38f7bdba1919e28f61b

Comments
Add Comment
Other Sources (comments)
(FOB) Senn 421> Cm> Dat>... (0) MAC>DAT>CD. Recording by... (0) flac16; Recording... (0) flac16; 2 source... (0) flac16/48 Jim... (0) flac24/96 Jim... (0)
Date User Comment
08/19/2007 charlie miller Apparently, the venue was in Piscataway.