Browse Collections Artists Sources   Search Dates

Add Show    List Management    Help


Grateful Dead 04/17/87
Irvine Meadows, Irvine, CA
Comments Add Comment    Source Collectors    Add to Collection    Add to Want List    History
Source # 86837 Other Sources
Entered by Matt Vernon
Checksums flac-md5 , ffp
Disc Counts 2 / 2
Media Size
Date Circulated
Date Added
08/22/2007
08/22/2007
Source Summary flac16; MAC; Sennheiser 441s > D5 > D5 > gold plated Monster Cables > D5 > Maxell XLII-S 90 (set I) TDK MA-R90 (set II). Taper: Johnny Corso. Transfer: Master Audience Cassettes > Nakamichi Dragon > RCA/XLR > Lunatec V3 @ 2496 > coax > Audiophile 2496 > WaveLab 5.0 > WAV @ 2496. Transferred by Alex Ford - August 2007. 
  Archive
Source Information - Download Text | Download Zip
Grateful Dead
1987-04-17 (Friday)
Irvine Meadows Amphitheatre
Irvine, CA

Source: (MAC) Sennheiser 441s > D5 > D5 > gold plated Monster Cables > D5 > Maxell XLII-S 90 (set I) TDK MA-R90 (set II)

Mic Config: PAS

Location: ROB (right next to Healy)

Taper: Johnny Corso

Transfer: Master Audience Cassettes > Nakamichi Dragon > XLR/RCA > Lunatec V3 @ 2496 > coax > Audiophile 2496 >
WaveLab 5.0 > WAV @ 2496 > Waves L3 UltraMaximizer > WAV @ 1644 > CD Wave Editor > Trader's Little Helper > FLAC16.


Set I:

d1t01 crowd/tuning
d1t02 Cold Rain And Snow
d1t03 Little Red Rooster
d1t04 Friend Of The Devil
d1t05 It's All Over Now
d1t06 When Push Comes To Shove
d1t07 Desolation Row
d1t08 Deal

Set II:

d1t09 crowd/tuning
d1t10 Touch Of Grey >
d1t11 Samson And Delilah
d2t01 Ship Of Fools
d2t02 Estimated Prophet >
d2t03 Eyes Of The World >
d2t04 Drums >
d2t05 Space >
d2t06 The Wheel >
d2t07 Truckin'>
d2t08 Stella Blue >
d2t09 Around And Around >
d2t10 Good Lovin'
Encore:
d2t11 The Mighty Quinn



Notes:

- Master Audience Cassettes provided by Mark McCue
- SBE Free. Files encoded @ level 8.
- Tape flips patched with shnid=11658
- 24 bit files archived.
- Transfer, edits, conversion & seeding bt Alex Ford August 2007.




Shntool Output:

    length     expanded size   cdr  WAVE problems filename
     0:35.68        6333980    ---   --   -----   gd1987-04-17d1t01.wav
     5:54.13       62476220    ---   --   -----   gd1987-04-17d1t02.wav
     8:41.59       92043212    ---   --   -----   gd1987-04-17d1t03.wav
     8:50.12       93520268    ---   --   -----   gd1987-04-17d1t04.wav
     7:15.17       76774028    ---   --   -----   gd1987-04-17d1t05.wav
     5:18.52       56217548    ---   --   -----   gd1987-04-17d1t06.wav
    10:15.26      108547196    ---   --   -----   gd1987-04-17d1t07.wav
     6:59.40       74005724    ---   --   -----   gd1987-04-17d1t08.wav
     0:47.72        8460188    ---   --   -----   gd1987-04-17d1t09.wav
     6:07.68       64898780    ---   --   -----   gd1987-04-17d1t10.wav
     6:38.38       70296620    ---   --   -----   gd1987-04-17d1t11.wav
     9:21.23       99014540    ---   --   -----   gd1987-04-17d2t01.wav
     9:54.23      104835740    ---   --   -----   gd1987-04-17d2t02.wav
     7:35.23       80316140    ---   --   -----   gd1987-04-17d2t03.wav
     7:41.12       81348668    ---   --   -----   gd1987-04-17d2t04.wav
     6:05.14       64418972    ---   --   -----   gd1987-04-17d2t05.wav
     4:27.05       47110604    ---   --   -----   gd1987-04-17d2t06.wav
     7:28.24       79083692    ---   --   -----   gd1987-04-17d2t07.wav
     8:03.69       85363532    ---   --   -----   gd1987-04-17d2t08.wav
     3:47.44       40146332    ---   --   -----   gd1987-04-17d2t09.wav
     9:22.23       99190940    ---   --   -----   gd1987-04-17d2t10.wav
     4:45.62       50419868    ---   --   -----   gd1987-04-17d2t11.wav
   145:57.37     1544822792 B                     (totals for 22 files, 1.0000 overall compression ratio)
Show Checksums
flac-md5
754407900189fb56cb8a5186dc9c1581 *gd1987-04-17d1t01.flac
a55731bc109ff47590a15ea1f11426cf *gd1987-04-17d1t02.flac
c33d92f6674ab8f7c8d33581ba1bb7c1 *gd1987-04-17d1t03.flac
5e5153deaa5572a00d855b2dec8ff12d *gd1987-04-17d1t04.flac
6cdf56fc4fde271a9c389b407fd4af95 *gd1987-04-17d1t05.flac
ea465edef9596f4dc152f47ed0b8da84 *gd1987-04-17d1t06.flac
dd0d0e9ae23e38913c4a96292bf9d85d *gd1987-04-17d1t07.flac
37d8168d1fd555d4673900be64618927 *gd1987-04-17d1t08.flac
775cc868fb695f5b044c76704fad71d9 *gd1987-04-17d1t09.flac
4e4a14b570430d5fcd0a5d828c7c566f *gd1987-04-17d1t10.flac
1fe386e1e01424da6d4e3a5843bde2ae *gd1987-04-17d1t11.flac
a85200b88b93afc21497069f06c4debc *gd1987-04-17d2t01.flac
84a6e860986196ae4436f7c52cd549ab *gd1987-04-17d2t02.flac
aafc1af22399fa7af5c4b9ae238b212a *gd1987-04-17d2t03.flac
d1a1cc3d67217780dae689fe12dee62d *gd1987-04-17d2t04.flac
7200dcfa28727b600bb30570c8d59248 *gd1987-04-17d2t05.flac
0b346b05f3f8d26fff2da058cc5323d8 *gd1987-04-17d2t06.flac
7d223d167669d86daeb7742d8ae24050 *gd1987-04-17d2t07.flac
756664201d843dec5dd63224ded2da79 *gd1987-04-17d2t08.flac
80ea487caa7a9045ae9efb84b745f9bc *gd1987-04-17d2t09.flac
139ffa0c3cdb469165d4c9e3d5a16f9c *gd1987-04-17d2t10.flac
5f8e708767c2c3e46b36d97e8ef8f346 *gd1987-04-17d2t11.flac
ffp
gd1987-04-17d1t01.flac:f80783aae7685c8f03746daeb2c58c41
gd1987-04-17d1t02.flac:e1d846b288300233633e993edd0ed5d3
gd1987-04-17d1t03.flac:559c98f5befd25490cc13f318bd99d81
gd1987-04-17d1t04.flac:64975b6dc107f853ae24e59247a81f15
gd1987-04-17d1t05.flac:e1ef63cd9eaa135a0504f60431f664b0
gd1987-04-17d1t06.flac:405cca83b5b58b02379a9030f4e90272
gd1987-04-17d1t07.flac:3015364f766e5e5bc8d581ecf60f490c
gd1987-04-17d1t08.flac:a5cd52b0c08c32c0d19c51177097047b
gd1987-04-17d1t09.flac:860633b81957a3cfb714080115eb1930
gd1987-04-17d1t10.flac:fc594c94244b41da4e7b94ed2d2bd2c8
gd1987-04-17d1t11.flac:7773fde7a588d3d30a03e4b65429af8c
gd1987-04-17d2t01.flac:96b38d30462c6bfe345ca24a0afde43d
gd1987-04-17d2t02.flac:d859e471a62144fe3f854f2e77e0bf0a
gd1987-04-17d2t03.flac:3b90709da8d47de9515f3a3f651b9ae2
gd1987-04-17d2t04.flac:865d32272c7a5c2c97ee7effe394d0e9
gd1987-04-17d2t05.flac:e133775282ff7e78cde16221ee5c4563
gd1987-04-17d2t06.flac:09f6e3d0f48560582fda9064d21a12de
gd1987-04-17d2t07.flac:b909ef9bfc53c4bad257e2704b6ba203
gd1987-04-17d2t08.flac:6dbd20d2952b6ece999f3f903b1a67c2
gd1987-04-17d2t09.flac:cfebe7402c04d092fc0ad4ef6d521360
gd1987-04-17d2t10.flac:1a51e3d439cf98d05c149d0fee163539
gd1987-04-17d2t11.flac:97e18637f685804daeda6685e02bc1de

Comments
Add Comment
Other Sources (comments)
AUD>PCM>DAT>CDR; Schoeps... (0) Master Soundboard Casette >... (1) flac16; Recording... (0) flac24; Recording... (0) flac16; Recording... (0)
Date User Comment