Browse Collections Artists Sources   Search Dates

Add Show    List Management    Help


Grateful Dead 12/04/73
Cincinnati Gardens, Cincinnati, OH
Comments Add Comment    Source Collectors    Add to Collection    Add to Want List    History
Source # 86839 Other Sources
Entered by Matt Vernon
Checksums ffp , flac-md5
Disc Counts 1 / 2
Media Size
Date Circulated
Date Added
08/22/2007
08/22/2007
Source Summary flac16; Recording Info: SBD -> Master Reel -> Dat (44.1k) Transfer Info: Dat (Sony R500) -> SEK'D Prodif Plus -> Samplitude v7.02 Professional -> FLAC All Transfers and Mastering By Charlie Miller 
  Archive
Source Information - Download Text | Download Zip
Grateful Dead - December 4, 1973
Cincinnati Gardens - Cincinnati, OH

Recording Info:
SBD -> Master Reel -> Dat (44.1k)

Transfer Info:
Dat (Sony R500) -> SEK'D Prodif Plus -> Samplitude v7.02 Professional -> FLAC
(2 Discs Audio / 1 Disc FLAC)

All Transfers and Mastering By Charlie Miller
[email protected]
August 1, 2007

Set 1:
d1t01 - Johnny B. Goode
d1t02 - Sugaree
d1t03 - Me And My Uncle
d1t04 - China Cat Sunflower ->
d1t05 - I Know You Rider
d1t06 - El Paso
d1t07 - Deal
d1t08 - Big River
d1t09 - Tennessee Jed
d1t10 - Truckin' ->
d1t11 - Stella Blue
d1t12 - Around And Around

Set 2:
d2t01 - Eyes Of The World ->
d2t02 - Sugar Magnolia ->
d2t03 - Goin' Down The Road Feeling Bad ->
d2t04 - Casey Jones

Encore:
xxxxx - One More Saturday Night (MISSING)


SHNTOOL OUTPUT:
    length     expanded size   cdr  WAVE problems filename
     4:42.36       49829516    ---   --   ---xx   gd73-12-04d1t01.flac
     8:21.42       88475228    ---   --   ---xx   gd73-12-04d1t02.flac
     3:05.59       32772812    ---   --   ---xx   gd73-12-04d1t03.flac
     7:55.00       83790044    ---   --   ---xx   gd73-12-04d1t04.flac
     5:44.56       60813356    ---   --   ---xx   gd73-12-04d1t05.flac
     4:26.04       46931852    ---   --   ---xx   gd73-12-04d1t06.flac
     5:50.04       61749452    ---   --   ---xx   gd73-12-04d1t07.flac
     5:12.58       55173260    ---   --   ---xx   gd73-12-04d1t08.flac
     8:52.05       93856604    ---   --   ---xx   gd73-12-04d1t09.flac
     8:41.38       91993820    ---   --   ---xx   gd73-12-04d1t10.flac
     8:29.30       89858204    ---   --   ---xx   gd73-12-04d1t11.flac
     5:00.51       53039996    ---   --   ---xx   gd73-12-04d1t12.flac
    23:57.21      253536236    ---   --   ---xx   gd73-12-04d2t01.flac
     6:17.55       66632204    ---   --   ---xx   gd73-12-04d2t02.flac
     9:45.71      103361036    ---   --   ---xx   gd73-12-04d2t03.flac
     7:15.13       76764620    ---   --   ---xx   gd73-12-04d2t04.flac
     4:48.16       50840876    ---   --   ---xx   gd73-12-04d2t05.flac
   128:26.34        1296.44 MB                    (totals for 17 files, 0.5045 overall compression ratio)
Show Checksums
ffp
gd73-12-04d1t01.flac:5db4bf2cf89b2222992ad3fb59d57479
gd73-12-04d1t02.flac:100b1ec5cc238b1a3626b3e701ebe3b6
gd73-12-04d1t03.flac:7da10a0849ce11bd35817cc22e0aceca
gd73-12-04d1t04.flac:cf6205ca7ecdc0e576c49666042f957c
gd73-12-04d1t05.flac:8f828697a5d33736fbc87deb4a866cb8
gd73-12-04d1t06.flac:fd94efce286007c258dbc25bf5c80942
gd73-12-04d1t07.flac:ca23bd0a39ae3fbcac3189d6a355be2f
gd73-12-04d1t08.flac:f270170c7b2527e12da73d61cc17608b
gd73-12-04d1t09.flac:9a9ac8ad2537a01b4b3e849ae89e0db2
gd73-12-04d1t10.flac:36ef4a90614973bb78aa01935e2d97b3
gd73-12-04d1t11.flac:1d8f6498578b5bccdd221cb0098515c2
gd73-12-04d1t12.flac:8dd16a0b5ff8d6ae8c5a95df7fb1f81a
gd73-12-04d2t01.flac:209b85a276095af27312222c39c3586e
gd73-12-04d2t02.flac:fbf6d91d785d3dc9065cb1b40d73eefb
gd73-12-04d2t03.flac:84ca24a99b7472e7bf3eedece5e9bc84
gd73-12-04d2t04.flac:0976cb3f339af71fb0736b72cc4c7c03
flac-md5
9f294e3eb11f0c785b32cc564fa7d28c *gd73-12-04d1t01.flac
380707869069d5db7a8031b047fcf11c *gd73-12-04d1t02.flac
14da3c057f390ce65b3c41273cd25414 *gd73-12-04d1t03.flac
7efd84bb31fdfb38f68931b851d86985 *gd73-12-04d1t04.flac
9ff81e707c5cfa851797d5085579d8e8 *gd73-12-04d1t05.flac
603180df986027a785ec1d095ca3730b *gd73-12-04d1t06.flac
197fb69ed9174c0c644d1186990ef4db *gd73-12-04d1t07.flac
32dd9eb910f672fbb58d84d88bf0b515 *gd73-12-04d1t08.flac
492fd3ee523fe3fa30d6da176a6c4a5a *gd73-12-04d1t09.flac
bc16138c25c4c19b1ca062244e6035bc *gd73-12-04d1t10.flac
b4fc897bb2349ef1d72cdf91065a6cc8 *gd73-12-04d1t11.flac
9f4032f4f24ae92bbbaa0831aacd08dc *gd73-12-04d1t12.flac
5a1de9e19396bcdc1907ef4fabb32e39 *gd73-12-04d2t01.flac
cc2f047b54ab7220db98a5241b57015b *gd73-12-04d2t02.flac
b138284e443f4145e7ecd5a1d2c37063 *gd73-12-04d2t03.flac
52dd759233a3cab73b6ab8385d38c397 *gd73-12-04d2t04.flac

Comments
Add Comment
Other Sources (comments)
Partial; Half of last song... (4) flac16; SET ONE ONLY... (0) flac16; Recording... (1)
Date User Comment
08/22/2007 charlie miller Trash this copy. I am circulating a copy that now has the encore. You will need to replace the following files:

txt, md5, ffp and d2t04.

Plus you will need to now add d2t05.

cm
08/22/2007 mayormarionbarry thanks charlie