Browse Collections Artists Sources   Search Dates

Add Show    List Management    Help


Outformation 05/19/07
Highland Lake Inn, Flat Rock, NC
Comments Add Comment    Source Collectors    Add to Collection    Add to Want List    History
Source # 86846 Other Sources
Entered by Todd
Checksums ffp
Disc Counts 2 / 2
Media Size
Date Circulated
Date Added
05/31/2007
08/23/2007
Source Summary SBD + (Stage) Scheops MK21/KC5/M222/NT222 > SD744t > WaveLab > CDWav > WaveLab > Flac
Recorded and seeded by Charles Fox 
  Archive
Source Information - Download Text | Download Zip
Outformation
Highland Lake Inn
Flat Rock, NC
2007-05-19

source: Schoeps mk21(nos)~>kc5~>m222~>nt222 + SBD(Yamaha M7CL)~>744t (24/48)
location: onstage/dfc
dsp: 744t~>wavelab5~>cdwave~>wavelab5~>flac(6)
recorded & seeded: Charles Fox

set 1 disc 1
01 Intro/tuning
02 Valley Blue
03 Can't Change The Past
04 Sweet Louisiana
05 'Bout My Money*
06 Game On
07 Lonesome Orn'ry & Mean
08 Glad >
09 Chicken Pickin' >
10 Into My Arms
11 90

Set 2 disc 2
01 Intro/tuning
02 Searchin' For A Rainbow
03 Titles Of Movies Will Not Appear On Bill >
04 Drums* >
05 Jam >
06 Titles >
07 Bad Bitch
08 Burned Faceless >
09 Long Hard Ride

*wedding reception for Nader & Amy Kawar*

ffp
out2007-05-19d1t01.flac:f60c39f18ebb191994d22cc69d219949
out2007-05-19d1t02.flac:fa6776899bc2b28c4324a0544839e81e
out2007-05-19d1t03.flac:96c0757c70823068f4afc31495bdfadd
out2007-05-19d1t04.flac:e503236f56d7b35755d2329cbff48d9f
out2007-05-19d1t05.flac:e688cac6c03884a3670d560e9eb76cfe
out2007-05-19d1t06.flac:e784973f2ba59370ec1e3f52d86b7167
out2007-05-19d1t07.flac:1f1f719b66ed0bd641dbfbdaa50c39f9
out2007-05-19d1t08.flac:9a03a4c64f963ec57979bbd7a8fbbf87
out2007-05-19d1t09.flac:a89359be38323aafc806618aa278505e
out2007-05-19d1t10.flac:ed8e6f17081def62f684dbad89dbde43
out2007-05-19d1t11.flac:76f5060ee31d65e85b698bf443b88dc8
out2007-05-19d2t01.flac:b3c8c9629cd861d41ee001e868d57a68
out2007-05-19d2t02.flac:3cf5b7784d1830d3951516fa1b9fb7e3
out2007-05-19d2t03.flac:eceb76fba22e553b1d644b6f97c27a32
out2007-05-19d2t04.flac:69ffd83d2fb29fb28850199f1daa57ac
out2007-05-19d2t05.flac:61bb9740d32082fcb70abb6934ee93df
out2007-05-19d2t06.flac:8a4bd500d12084d01250208db0b50e03
out2007-05-19d2t07.flac:e9d35d7b412adad1f09ef209b414628e
out2007-05-19d2t08.flac:91de43e64fba4a0abbf72170cb058f8c
out2007-05-19d2t09.flac:69791d2d8b41a09c7db4ddfa319404d8

shntool
    length     expanded size   cdr  WAVE problems filename
     0:43.19        7629932    ---   --   ---xx   out2007-05-19d1t01.flac
     3:02.35       32187164    ---   --   ---xx   out2007-05-19d1t02.flac
     5:39.26       59860796    ---   --   ---xx   out2007-05-19d1t03.flac
     5:08.60       54472364    ---   --   ---xx   out2007-05-19d1t04.flac
    13:34.09      143610812    ---   --   ---xx   out2007-05-19d1t05.flac
     4:02.63       42837020    ---   --   ---xx   out2007-05-19d1t06.flac
     4:55.42       52136828    ---   --   ---xx   out2007-05-19d1t07.flac
     5:45.69       61020332    ---   --   ---xx   out2007-05-19d1t08.flac
     5:42.42       60427628    ---   --   ---xx   out2007-05-19d1t09.flac
     9:35.23      101484140    ---   --   ---xx   out2007-05-19d1t10.flac
     9:04.40       96055724    ---   --   ---xx   out2007-05-19d1t11.flac
     2:16.07       24006908    ---   --   ---xx   out2007-05-19d2t01.flac
     7:51.07       83100908    ---   --   ---xx   out2007-05-19d2t02.flac
     6:47.55       71924204    ---   --   ---xx   out2007-05-19d2t03.flac
     5:24.30       57224204    ---   --   ---xx   out2007-05-19d2t04.flac
     6:15.05       66161804    ---   --   ---xx   out2007-05-19d2t05.flac
     0:49.07        8660108    ---   --   ---xx   out2007-05-19d2t06.flac
     7:36.50       80556044    ---   --   ---xx   out2007-05-19d2t07.flac
     7:17.24       77143292    ---   --   ---xx   out2007-05-19d2t08.flac
     4:49.69       51141932    ---   --   ---xx   out2007-05-19d2t09.flac
   116:22.07     1231642144 B                     (totals for 20 files, 0.5664 overall compression ratio)


Show Checksums
ffp
out2007-05-19d1t01.flac:f60c39f18ebb191994d22cc69d219949
out2007-05-19d1t02.flac:fa6776899bc2b28c4324a0544839e81e
out2007-05-19d1t03.flac:96c0757c70823068f4afc31495bdfadd
out2007-05-19d1t04.flac:e503236f56d7b35755d2329cbff48d9f
out2007-05-19d1t05.flac:e688cac6c03884a3670d560e9eb76cfe
out2007-05-19d1t06.flac:e784973f2ba59370ec1e3f52d86b7167
out2007-05-19d1t07.flac:1f1f719b66ed0bd641dbfbdaa50c39f9
out2007-05-19d1t08.flac:9a03a4c64f963ec57979bbd7a8fbbf87
out2007-05-19d1t09.flac:a89359be38323aafc806618aa278505e
out2007-05-19d1t10.flac:ed8e6f17081def62f684dbad89dbde43
out2007-05-19d1t11.flac:76f5060ee31d65e85b698bf443b88dc8
out2007-05-19d2t01.flac:b3c8c9629cd861d41ee001e868d57a68
out2007-05-19d2t02.flac:3cf5b7784d1830d3951516fa1b9fb7e3
out2007-05-19d2t03.flac:eceb76fba22e553b1d644b6f97c27a32
out2007-05-19d2t04.flac:69ffd83d2fb29fb28850199f1daa57ac
out2007-05-19d2t05.flac:61bb9740d32082fcb70abb6934ee93df
out2007-05-19d2t06.flac:8a4bd500d12084d01250208db0b50e03
out2007-05-19d2t07.flac:e9d35d7b412adad1f09ef209b414628e
out2007-05-19d2t08.flac:91de43e64fba4a0abbf72170cb058f8c
out2007-05-19d2t09.flac:69791d2d8b41a09c7db4ddfa319404d8

Comments
Add Comment
Date User Comment