Browse Collections Artists Sources   Search Dates

Add Show    List Management    Help


Outformation 05/27/07
The Pour House, James Island, SC
Comments Add Comment    Source Collectors    Add to Collection    Add to Want List    History
Source # 86848 Other Sources
Entered by Todd
Checksums ffp
Disc Counts 2 / 3
Media Size
Date Circulated
Date Added
05/28/2007
08/23/2007
Source Summary Peluso CEMC6 (cards) -> d-mod UA-5 -> JB3 -> SVU-2 > JB3 > Creative Play Center > CD Wave Editor > Flac
Taped and transfered by Chris Davis 
  Archive
Source Information - Download Text | Download Zip
Outformation
The Pour House
James Island, SC
May 27, 2007 (Sunday)

source:    Peluso CEMC6 (cards) -> d-mod UA-5 -> JB3 -> SVU-2
location:  DFC / Clamped to ceiling / 15' off floor / 20' from stage
transfer:  JB3 -> Creative Play Center -> CD Wave Editor -> FLAC (6)

taped/transferred/seeded:   Chris Davis+ (5/28/07)

Disc 1:   (60:54)
Set 1:
01. (1:04)   -tuning-
02. (9:22)   Carnac
03. (9:51)   Game On ->
04. (11:16)  Start It Out Again
05. (5:49)   Cant Change the Past
06. (9:00)   Traveler's Rest
07. (4:32)   Sweet Louisiana
08. (3:05)   A of D ->
09. (6:55)   Into My Arms

Disc 2:    (62:15)
Set 2:
01. (6:31)   Edgewater
02. (13:10)  Stone In My Shoe
03. (5:51)   Glad*
04. (7:43)   Tennessee Before Daylight
05. (3:49)   SG ->
06. (7:10)   Titles of Movies Will Not Appear on Bill ->
07. (4:43)   War Pigs Jam ->
08. (3:53)   Drums ->
09. (1:46)   Titles of Movies Will Not Appear on Bill
10. (7:39)   Searchin' for a Rainbow

Disc 3:    (21:58)
Set 3:
01. (0:20)   -tuning/banter-
02. (3:25)   Solid Country Gold
03. (6:17)   Anymore -> Jam ->
04. (3:23)   Burned Faceless ->
05. (3:45)   D Jam ->
06. (4:48)   Long Hard Ride

Notes:
*with Brian Watson on sax!
+Todd Trego and Col. George (ret.) helped me every step of the way, and
deserve their props.
-This show can easily fit on 2 discs for audio burning,
I chose not to break up the sets.


of2007-05-27d1t01.flac:6c45a1dfa4d0b4f99f38ca77d1721caf
of2007-05-27d1t02.flac:8b603c39eb27c432da691658a63bd4be
of2007-05-27d1t03.flac:ec3b92e6ff70f4e8d634d05f07faa272
of2007-05-27d1t04.flac:6d29a72b13f85dc0faa07171da62d082
of2007-05-27d1t05.flac:745c3a6e1089b41a0960a7d5fe6ac79b
of2007-05-27d1t06.flac:81abdd0ace41d1f78d132e5be1703c5f
of2007-05-27d1t07.flac:fc0cdb2d6696663b0fee227dde92cfd0
of2007-05-27d1t08.flac:1030c509622b0d46101c48735065afce
of2007-05-27d1t09.flac:2527caab52a1dacc30357602a3aa3be9
of2007-05-27d2t01.flac:99be0fae78683d3ce4c650621a1f109d
of2007-05-27d2t02.flac:7b36c58e820a7e768efb386f4800aff4
of2007-05-27d2t03.flac:171ce703990a6a8a1ecc25aff3edcee6
of2007-05-27d2t04.flac:37367d8f6a45c3fe4f72fcc56d679554
of2007-05-27d2t05.flac:c819411cdaecb1a959623f3be38cea39
of2007-05-27d2t06.flac:8e7bf5e6b17b3712a9fe0b4f50abd070
of2007-05-27d2t07.flac:6707be1e311bf0e967daf911001ec169
of2007-05-27d2t08.flac:8ce0a6bf6ace1a03b690a39e35af681e
of2007-05-27d2t09.flac:0e24b97696550b89f6c178a70b7c37fb
of2007-05-27d2t10.flac:4e3850fc1a8a1c5037fa4051a2f0e4ed
of2007-05-27d3t01.flac:3ffc8c249889edac87165e40a4e0ea98
of2007-05-27d3t02.flac:24dc536ba11929d2988a38f8087a4e4c
of2007-05-27d3t03.flac:f7c9ccb6fe19d220ff2418a1cb0fc2c7
of2007-05-27d3t04.flac:a7d6fb742cd7ad1611725534dee62147
of2007-05-27d3t05.flac:285b32e4c3a35a5ccc1a5d3c8f5add47
of2007-05-27d3t06.flac:fb31047c757b8aadf6754301f622ed17


   length     expanded size    cdr  WAVE problems  fmt   ratio  filename
     1:04.36       11374316 B   ---   --   -----    wav  1.0000  of2007-05-27d1t01.wav
     9:22.43       99237980 B   ---   --   -----    wav  1.0000  of2007-05-27d1t02.wav
     9:51.59      104391212 B   ---   --   -----    wav  1.0000  of2007-05-27d1t03.wav
    11:16.59      119385212 B   ---   --   -----    wav  1.0000  of2007-05-27d1t04.wav
     5:49.65       61716524 B   ---   --   -----    wav  1.0000  of2007-05-27d1t05.wav
     9:00.73       95427740 B   ---   --   -----    wav  1.0000  of2007-05-27d1t06.wav
     4:32.55       48110204 B   ---   --   -----    wav  1.0000  of2007-05-27d1t07.wav
     3:05.28       32699900 B   ---   --   -----    wav  1.0000  of2007-05-27d1t08.wav
     6:55.26       73267196 B   ---   --   -----    wav  1.0000  of2007-05-27d1t09.wav
     6:31.71       69139436 B   ---   --   -----    wav  1.0000  of2007-05-27d2t01.wav
    13:10.29      139424252 B   ---   --   -----    wav  1.0000  of2007-05-27d2t02.wav
     5:51.50       62034044 B   ---   --   -----    wav  1.0000  of2007-05-27d2t03.wav
     7:43.46       81781436 B   ---   --   -----    wav  1.0000  of2007-05-27d2t04.wav
     3:49.62       40541468 B   ---   --   -----    wav  1.0000  of2007-05-27d2t05.wav
     7:10.64       76002572 B   ---   --   -----    wav  1.0000  of2007-05-27d2t06.wav
     4:43.29       49989452 B   ---   --   -----    wav  1.0000  of2007-05-27d2t07.wav
     3:53.14       41134172 B   ---   --   -----    wav  1.0000  of2007-05-27d2t08.wav
     1:46.71       18865436 B   ---   --   -----    wav  1.0000  of2007-05-27d2t09.wav
     7:39.36       81052316 B   ---   --   -----    wav  1.0000  of2007-05-27d2t10.wav
     0:20.66        3683276 B   ---   --   -----    wav  1.0000  of2007-05-27d3t01.wav
     3:25.15       36197324 B   ---   --   -----    wav  1.0000  of2007-05-27d3t02.wav
     6:17.66       66658076 B   ---   --   -----    wav  1.0000  of2007-05-27d3t03.wav
     3:23.28       35875100 B   ---   --   -----    wav  1.0000  of2007-05-27d3t04.wav
     3:45.63       39838220 B   ---   --   -----    wav  1.0000  of2007-05-27d3t05.wav
     4:48.21       50852636 B   ---   --   -----    wav  1.0000  of2007-05-27d3t06.wav
   145:22.50     1538679500 B                            1.0000  (25 files)
Show Checksums
ffp
of2007-05-27d1t01.flac:6c45a1dfa4d0b4f99f38ca77d1721caf
of2007-05-27d1t02.flac:8b603c39eb27c432da691658a63bd4be
of2007-05-27d1t03.flac:ec3b92e6ff70f4e8d634d05f07faa272
of2007-05-27d1t04.flac:6d29a72b13f85dc0faa07171da62d082
of2007-05-27d1t05.flac:745c3a6e1089b41a0960a7d5fe6ac79b
of2007-05-27d1t06.flac:81abdd0ace41d1f78d132e5be1703c5f
of2007-05-27d1t07.flac:fc0cdb2d6696663b0fee227dde92cfd0
of2007-05-27d1t08.flac:1030c509622b0d46101c48735065afce
of2007-05-27d1t09.flac:2527caab52a1dacc30357602a3aa3be9
of2007-05-27d2t01.flac:99be0fae78683d3ce4c650621a1f109d
of2007-05-27d2t02.flac:7b36c58e820a7e768efb386f4800aff4
of2007-05-27d2t03.flac:171ce703990a6a8a1ecc25aff3edcee6
of2007-05-27d2t04.flac:37367d8f6a45c3fe4f72fcc56d679554
of2007-05-27d2t05.flac:c819411cdaecb1a959623f3be38cea39
of2007-05-27d2t06.flac:8e7bf5e6b17b3712a9fe0b4f50abd070
of2007-05-27d2t07.flac:6707be1e311bf0e967daf911001ec169
of2007-05-27d2t08.flac:8ce0a6bf6ace1a03b690a39e35af681e
of2007-05-27d2t09.flac:0e24b97696550b89f6c178a70b7c37fb
of2007-05-27d2t10.flac:4e3850fc1a8a1c5037fa4051a2f0e4ed
of2007-05-27d3t01.flac:3ffc8c249889edac87165e40a4e0ea98
of2007-05-27d3t02.flac:24dc536ba11929d2988a38f8087a4e4c
of2007-05-27d3t03.flac:f7c9ccb6fe19d220ff2418a1cb0fc2c7
of2007-05-27d3t04.flac:a7d6fb742cd7ad1611725534dee62147
of2007-05-27d3t05.flac:285b32e4c3a35a5ccc1a5d3c8f5add47
of2007-05-27d3t06.flac:fb31047c757b8aadf6754301f622ed17

Comments
Add Comment
Date User Comment