Browse Collections Artists Sources   Search Dates

Add Show    List Management    Help


Outformation 06/01/07
Smith's Olde Bar, Atlanta, GA
Comments Add Comment    Source Collectors    Add to Collection    Add to Want List    History
Source # 86849 Other Sources
Entered by Todd
Checksums ffp
Disc Counts 2 / 3
Media Size
Date Circulated
Date Added
06/05/2007
08/23/2007
Source Summary (FOB) Schoeps MK4V/KC5/CMC6 > SD 722 >WaveLab > CDWav > Flac
Taped, Transfered & Seeded by Martin Medley 
  Archive
Source Information - Download Text | Download Zip
Outformation
2007-06-01
Smith's Olde Bar
Atlanta, GA.


***16bit Source***


Source: Schoeps MK4V > KC5 > CMC6 > SD 722 @ 24/96
Location: FOB/DFC/ORTF/7ft
Transfer: 722 > HDD > Wavelab 5.01a (Re-Sample/UV22HR Dither/Fades) > CDWave > FLAC (8)
Taped, Transferred & Seeded by Martin Medley.


Disc 1:
Set 1:

01. Edgewater >
02. Can't Change The Past,
03. Carnac,
04. Later,
05. Toy's Lament >
06. Chicken Pickin' >
07. Long Lonely Road >
08. Into My Arms


Disc 2:
Set 2:

01. Jam >
02. Glad >
03. 90,
04. Winds >
05. Stone In My Shoe,
06. Titles Of Movies Will Not Appear On Bill >
07. War Pigs Jam >
08. Camper >
09. Titles Of Movies Will Not Appear On Bill,
10. Traveler's Rest,
11. Searchin' For A Rainbow


Disc 3:
Encore:

01. Anymore >
02. Solid Country Gold >
03. Titles Of Movies Will Not Appear On Bill (Reprise)


Notes: DVD filming

http://www.foryouroutformation.com
http://www.setformation.com


shntool info:

    length     expanded size   cdr  WAVE problems filename
     5:03.60       53590364    ---   --   -----   outformation2007-06-01d1t01.wav
     4:59.22       52795388    ---   --   -----   outformation2007-06-01d1t02.wav
     9:33.09      101098412    ---   --   -----   outformation2007-06-01d1t03.wav
     6:21.09       67229612    ---   --   -----   outformation2007-06-01d1t04.wav
     7:45.11       82051916    ---   --   -----   outformation2007-06-01d1t05.wav
     5:31.31       58461356    ---   --   -----   outformation2007-06-01d1t06.wav
     9:37.14      101815772    ---   --   -----   outformation2007-06-01d1t07.wav
     6:51.32       72575708    ---   --   -----   outformation2007-06-01d1t08.wav
     3:19.70       35268284    ---   --   -----   outformation2007-06-01d2t01.wav
     4:49.66       51134876    ---   --   -----   outformation2007-06-01d2t02.wav
     9:23.52       99435548    ---   --   -----   outformation2007-06-01d2t03.wav
     6:24.57       67871708    ---   --   -----   outformation2007-06-01d2t04.wav
    13:32.36      143321516    ---   --   -----   outformation2007-06-01d2t05.wav
     6:17.33       66580460    ---   --   -----   outformation2007-06-01d2t06.wav
     4:15.42       45080828    ---   --   -----   outformation2007-06-01d2t07.wav
     1:41.70       17981084    ---   --   -----   outformation2007-06-01d2t08.wav
     4:06.04       43403852    ---   --   -----   outformation2007-06-01d2t09.wav
     8:55.32       94449308    ---   --   -----   outformation2007-06-01d2t10.wav
    10:38.55      112672604    ---   --   -----   outformation2007-06-01d2t11.wav
     4:29.74       47625692    ---   --   -----   outformation2007-06-01d3t01.wav
     3:12.07       33885308    ---   --   -----   outformation2007-06-01d3t02.wav
     3:09.64       33490172    ---   --   -----   outformation2007-06-01d3t03.wav
   140:00.25     1481819768 B                     (totals for 22 files, 1.0000 overall compression ratio)


FLAC Fingerprint:

outformation2007-06-01d1t01.flac:2790f30c1f1e72f433394b97e5bdbc80
outformation2007-06-01d1t02.flac:c6a2e00b61b87c9c4296694a5b80dffa
outformation2007-06-01d1t03.flac:bbc84e2d2ded20fb308cce331a82e076
outformation2007-06-01d1t04.flac:3d01bbcf5705bee3224766af222e9f88
outformation2007-06-01d1t05.flac:b2289a613fcfb007d660ae10d3212f37
outformation2007-06-01d1t06.flac:e35963d8e64e64e467b0fe34d7e1753c
outformation2007-06-01d1t07.flac:7e9a05983df479e54cb380f7965e1a3d
outformation2007-06-01d1t08.flac:67e7236eb8fa1fe209e025418982e7a5
outformation2007-06-01d2t01.flac:cd8bbe824f72454c83642569e6746cbd
outformation2007-06-01d2t02.flac:42284493d3f70bdcd74ac1469e00a8a8
outformation2007-06-01d2t03.flac:f9bcf3b9b437b75ed7e6e8d2bc5500cf
outformation2007-06-01d2t04.flac:20b053f813b249c2809def830a4cef29
outformation2007-06-01d2t05.flac:0eb4b03a9aa3c35d00002f224154cee6
outformation2007-06-01d2t06.flac:5070d16b8def6ebcc7cb39ff0b660e84
outformation2007-06-01d2t07.flac:65898c10b9aa6d2a7391f5fd6dac233b
outformation2007-06-01d2t08.flac:6ff5a33c365f7f39ef751a9debc7295c
outformation2007-06-01d2t09.flac:e269d240ce6896c75a3064b8fc83e870
outformation2007-06-01d2t10.flac:27371e6aea00fffe1d6cb1a9bd8a395c
outformation2007-06-01d2t11.flac:b0333009146f6880285b5666110217be
outformation2007-06-01d3t01.flac:195134821b3a1e82f6a8cc99d7b06a8b
outformation2007-06-01d3t02.flac:82c3f99f0016037f296ce8117a9a9957
outformation2007-06-01d3t03.flac:86c272cf2195ad1301f2ea0a096db492
Show Checksums
ffp
outformation2007-06-01d1t01.flac:2790f30c1f1e72f433394b97e5bdbc80
outformation2007-06-01d1t02.flac:c6a2e00b61b87c9c4296694a5b80dffa
outformation2007-06-01d1t03.flac:bbc84e2d2ded20fb308cce331a82e076
outformation2007-06-01d1t04.flac:3d01bbcf5705bee3224766af222e9f88
outformation2007-06-01d1t05.flac:b2289a613fcfb007d660ae10d3212f37
outformation2007-06-01d1t06.flac:e35963d8e64e64e467b0fe34d7e1753c
outformation2007-06-01d1t07.flac:7e9a05983df479e54cb380f7965e1a3d
outformation2007-06-01d1t08.flac:67e7236eb8fa1fe209e025418982e7a5
outformation2007-06-01d2t01.flac:cd8bbe824f72454c83642569e6746cbd
outformation2007-06-01d2t02.flac:42284493d3f70bdcd74ac1469e00a8a8
outformation2007-06-01d2t03.flac:f9bcf3b9b437b75ed7e6e8d2bc5500cf
outformation2007-06-01d2t04.flac:20b053f813b249c2809def830a4cef29
outformation2007-06-01d2t05.flac:0eb4b03a9aa3c35d00002f224154cee6
outformation2007-06-01d2t06.flac:5070d16b8def6ebcc7cb39ff0b660e84
outformation2007-06-01d2t07.flac:65898c10b9aa6d2a7391f5fd6dac233b
outformation2007-06-01d2t08.flac:6ff5a33c365f7f39ef751a9debc7295c
outformation2007-06-01d2t09.flac:e269d240ce6896c75a3064b8fc83e870
outformation2007-06-01d2t10.flac:27371e6aea00fffe1d6cb1a9bd8a395c
outformation2007-06-01d2t11.flac:b0333009146f6880285b5666110217be
outformation2007-06-01d3t01.flac:195134821b3a1e82f6a8cc99d7b06a8b
outformation2007-06-01d3t02.flac:82c3f99f0016037f296ce8117a9a9957
outformation2007-06-01d3t03.flac:86c272cf2195ad1301f2ea0a096db492

Comments
Add Comment
Date User Comment