Browse Collections Artists Sources   Search Dates

Add Show    List Management    Help


Outformation 06/02/07
Smith's Olde Bar, Atlanta, GA
Comments Add Comment    Source Collectors    Add to Collection    Add to Want List    History
Source # 86850 Other Sources
Entered by Todd
Checksums ffp
Disc Counts 2 / 3
Media Size
Date Circulated
Date Added
06/05/2007
08/23/2007
Source Summary (FOB) Schoeps MK4V/KC5/CMC6 > SD 722 >WaveLab > CDWav > Flac
Taped, Transfered & Seeded by Martin Medley 
  Archive
Source Information - Download Text | Download Zip
Outformation
2007-06-02
Smith's Olde Bar
Atlanta, GA.


***16bit Source***


Source: Schoeps MK4V > KC5 > CMC6 > SD 722 @ 24/96
Location: FOB/DFC/ORTF/7ft
Transfer: 722 > HDD > Wavelab 5.01a (Re-Sample/UV22HR Dither/Fades) > CDWave > FLAC (8)
Taped, Transferred & Seeded by Martin Medley.


Disc 1:
Set 1:


01. DJ Sinister's Bob Marley Medley
02. Valley Blue >
03. Into My Arms,
04. Dark Severinsen >
05. American Spirit,
06. Traveler's Rest,
07. SG >
08. Edgewater,
09. Carnac


Disc 2:
Set 2:

01. Start It Out Again,
02. Game On >
03. 'Bout My Money >
04. Drums >
05. 'Bout My Money >
06. Center Stage * >
07. Danny's Son * >
08. Center Stage * >
09. Sweet Louisiana *,
10. Tennessee Before Daylight,
11. Can't Change The Past,
12. Blue Ridge Mountain Sky


Disc 3:
Encore:

01. Lonesome Orn'ry & Mean *,
02. Brand New,
03. Burned Faceless >
04. D Jam >
05. Long Hard Ride *

Guests:

* with Benji Shanks on guitar

Notes: DVD filming

http://www.foryouroutformation.com
http://www.setformation.com


shntool info:

    length     expanded size   cdr  WAVE problems filename
     8:12.17       86828828    ---   --   -----   outformation2007-06-02d1t01.wav
     3:32.16       37434476    ---   --   -----   outformation2007-06-02d1t02.wav
     7:11.11       76054316    ---   --   -----   outformation2007-06-02d1t03.wav
     6:48.24       72027692    ---   --   -----   outformation2007-06-02d1t04.wav
     7:07.26       75383996    ---   --   -----   outformation2007-06-02d1t05.wav
     8:38.12       91403468    ---   --   -----   outformation2007-06-02d1t06.wav
     3:59.44       42263132    ---   --   -----   outformation2007-06-02d1t07.wav
     5:07.46       54263036    ---   --   -----   outformation2007-06-02d1t08.wav
     9:34.24      101310092    ---   --   -----   outformation2007-06-02d1t09.wav
    12:08.31      128492156    ---   --   -----   outformation2007-06-02d2t01.wav
     8:24.06       88919756    ---   --   -----   outformation2007-06-02d2t02.wav
     8:44.24       92490092    ---   --   -----   outformation2007-06-02d2t03.wav
     2:49.44       29915132    ---   --   -----   outformation2007-06-02d2t04.wav
     4:29.10       47475164    ---   --   -----   outformation2007-06-02d2t05.wav
     4:39.13       49246220    ---   --   -----   outformation2007-06-02d2t06.wav
     5:03.44       53552732    ---   --   -----   outformation2007-06-02d2t07.wav
     4:51.22       51384188    ---   --   -----   outformation2007-06-02d2t08.wav
     6:38.07       70223708    ---   --   -----   outformation2007-06-02d2t09.wav
     7:46.28       82268300    ---   --   -----   outformation2007-06-02d2t10.wav
     4:43.00       49921244    ---   --   -----   outformation2007-06-02d2t11.wav
    17:32.65      185725724    ---   --   -----   outformation2007-06-02d2t12.wav
     4:45.48       50386940    ---   --   -----   outformation2007-06-02d3t01.wav
     8:03.11       85227116    ---   --   -----   outformation2007-06-02d3t02.wav
     3:19.06       35117756    ---   --   -----   outformation2007-06-02d3t03.wav
     3:42.50       39278444    ---   --   -----   outformation2007-06-02d3t04.wav
     6:10.28       65333900    ---   --   -----   outformation2007-06-02d3t05.wav
   174:01.57     1841927608 B                     (totals for 26 files, 1.0000 overall compression ratio)


FLAC Fingerprint:

outformation2007-06-02d1t01.flac:ef275797522b891eab5a30af94e7beef
outformation2007-06-02d1t02.flac:452e6cc8704625445d873fbf22251afc
outformation2007-06-02d1t03.flac:2b6230b92b58c4b040819214d3c3d882
outformation2007-06-02d1t04.flac:ed359db84741a9a879aa184d63f9c5a7
outformation2007-06-02d1t05.flac:0517851f1bbc46d2f960263021269faa
outformation2007-06-02d1t06.flac:fe34091983e5a46c2d7491893e14ca8c
outformation2007-06-02d1t07.flac:5a37a5db9e0d8d64667d88879a9473aa
outformation2007-06-02d1t08.flac:209c42acb9612df2f2376718d05b4520
outformation2007-06-02d1t09.flac:16873f5db1d4934ee70399ce1c0314eb
outformation2007-06-02d2t01.flac:852f9c6b12d3be1c337462fcc68bdc52
outformation2007-06-02d2t02.flac:b853b005b6006b98b3dcd3ee3a643eb0
outformation2007-06-02d2t03.flac:7d6b2b48e0a2a3d58279cfc851566a5d
outformation2007-06-02d2t04.flac:4d3860733e9376a90ba7dd4f3e328c79
outformation2007-06-02d2t05.flac:f08efbd6c26137fb2a6690a5bb0ad475
outformation2007-06-02d2t06.flac:2b8ad1745de0553d815fe129a6d78f74
outformation2007-06-02d2t07.flac:be9c8ec78e5be2c88f18e47e7f7077e2
outformation2007-06-02d2t08.flac:00eeac5ac4f93b40ef4e21b737610554
outformation2007-06-02d2t09.flac:8afd03772dcaba2d0c937f9857b3d7fc
outformation2007-06-02d2t10.flac:dde9c8e92aacb0063c040e601912fd21
outformation2007-06-02d2t11.flac:e8af37dbc0a294d63c684d6f56f3e5dd
outformation2007-06-02d2t12.flac:8f57b7d505ab6bb4f8c6d74f45f43a8d
outformation2007-06-02d3t01.flac:b28e30efbc9c5420f939db660de50948
outformation2007-06-02d3t02.flac:0fcaec478713b7f5e04ca4b071473e71
outformation2007-06-02d3t03.flac:4140daad3ddcd12ba1cc22bdeddbd63c
outformation2007-06-02d3t04.flac:a1da3da86531fa72406e26f7a98d4785
outformation2007-06-02d3t05.flac:392553019f91ba6daefed2a871581ef4
Show Checksums
ffp
outformation2007-06-02d1t01.flac:ef275797522b891eab5a30af94e7beef
outformation2007-06-02d1t02.flac:452e6cc8704625445d873fbf22251afc
outformation2007-06-02d1t03.flac:2b6230b92b58c4b040819214d3c3d882
outformation2007-06-02d1t04.flac:ed359db84741a9a879aa184d63f9c5a7
outformation2007-06-02d1t05.flac:0517851f1bbc46d2f960263021269faa
outformation2007-06-02d1t06.flac:fe34091983e5a46c2d7491893e14ca8c
outformation2007-06-02d1t07.flac:5a37a5db9e0d8d64667d88879a9473aa
outformation2007-06-02d1t08.flac:209c42acb9612df2f2376718d05b4520
outformation2007-06-02d1t09.flac:16873f5db1d4934ee70399ce1c0314eb
outformation2007-06-02d2t01.flac:852f9c6b12d3be1c337462fcc68bdc52
outformation2007-06-02d2t02.flac:b853b005b6006b98b3dcd3ee3a643eb0
outformation2007-06-02d2t03.flac:7d6b2b48e0a2a3d58279cfc851566a5d
outformation2007-06-02d2t04.flac:4d3860733e9376a90ba7dd4f3e328c79
outformation2007-06-02d2t05.flac:f08efbd6c26137fb2a6690a5bb0ad475
outformation2007-06-02d2t06.flac:2b8ad1745de0553d815fe129a6d78f74
outformation2007-06-02d2t07.flac:be9c8ec78e5be2c88f18e47e7f7077e2
outformation2007-06-02d2t08.flac:00eeac5ac4f93b40ef4e21b737610554
outformation2007-06-02d2t09.flac:8afd03772dcaba2d0c937f9857b3d7fc
outformation2007-06-02d2t10.flac:dde9c8e92aacb0063c040e601912fd21
outformation2007-06-02d2t11.flac:e8af37dbc0a294d63c684d6f56f3e5dd
outformation2007-06-02d2t12.flac:8f57b7d505ab6bb4f8c6d74f45f43a8d
outformation2007-06-02d3t01.flac:b28e30efbc9c5420f939db660de50948
outformation2007-06-02d3t02.flac:0fcaec478713b7f5e04ca4b071473e71
outformation2007-06-02d3t03.flac:4140daad3ddcd12ba1cc22bdeddbd63c
outformation2007-06-02d3t04.flac:a1da3da86531fa72406e26f7a98d4785
outformation2007-06-02d3t05.flac:392553019f91ba6daefed2a871581ef4

Comments
Add Comment
Date User Comment