Browse Collections Artists Sources   Search Dates

Add Show    List Management    Help


Grateful Dead 02/07/79
SIU Arena, Southern Illinois U, Carbondale, IL
Comments Add Comment    Source Collectors    Add to Collection    Add to Want List    History
Source # 86941 Other Sources
Entered by Matt Vernon
Checksums ffp , flac-md5
Disc Counts 1 / 1
Media Size
Date Circulated
Date Added
08/26/2007
08/27/2007
Source Summary flac16; Set 1 only, Lineage: SBD > ? > Cassette Transfer: Maxell XL-II > Nakamichi BX-125 > Audiophile 2496 > Soundforge > CD-Wave > TLH > FLAC. Aug 2007, by Andrew F.  
  Archive
Source Information - Download Text | Download Zip
GRATEFUL DEAD
SIU Arena
University of Southern Illinois
Carbondale IL
02-07-1979

First Set SBD (see notes)

01 //Don't Ease Me In
02 Mama Tried >
03 Mexicali Blues
04 Jackaroe
05 Looks Like Rain
06 They Love Each Other
07 Minglewood Blues
08 Stagger Lee
09 //I Need a Miracle >
10 Ber//tha
-- part of 2nd set? --
11 Dancin' in the Streets >
12 Drums//

Lineage: SBD > ? > Cassette provided by Ted Carpenter.

Transfer: Maxell XL-II > Nakamichi BX-125 > Audiophile 2496 >
Soundforge > CD-Wave > TLH > FLAC. Aug 2007, by Andrew F.

Notes: This derives from the same source tape as ShnID-13879.
While this version has the same hiss, tape surface noise, and
cuts as the previous tape, the overall sound is an improvement.

In "Home Before Daylight" Steve Parish mentions that Jerry took
valium before this show. Jerry's allergic reaction to the pills
would explain why his playing and singing get worse and worse
as the set goes on...

On this tape, and the ShnID-13879 tape, Dancin' and Drums were
placed at the start of cassette side-B, after Stagger Lee and
before Miracle. Jerry's playing is horrific from Stagger Lee
through Bertha, while the playing on Dancin' is somewhat better.
If Jerry were sick, it would seem unlikely that the band would
insert a long song plus drums solo into the 1st set. So it's a
good guess that the Dancin' and Drums segment was spliced into
the circulating tape, and it actually comes from the 2nd set.

- Don't Ease cuts in, it's unclear how much is missing.
- ShnID-13879 provides 0:00 > 1:28, and 2:23 > 2:25 of Dancin'.
- Miracle cuts in at the beginning, not much missing.
- Cut in Bertha at 2:17, part of Jerry's solo missing.
- Soundforge used for patches, edits, fades, and correcting pitch.
- TLH used for SBE-OK, FLAC compression, and checksums.

md5

a1453ae9a42e04e12972b4b011c1d6e4 *gd1979-02-07d1t01.flac
400cdf477f12d6da23204b1e921b4afa *gd1979-02-07d1t02.flac
3c61d851e3669f46171a650c903060a1 *gd1979-02-07d1t03.flac
247d93e80a52194fc693bf13a20d99bc *gd1979-02-07d1t04.flac
12af37a44a4ea64f5f1a956c7ba7ba6c *gd1979-02-07d1t05.flac
cf21016fe35696b0e5121354b8ace9ae *gd1979-02-07d1t06.flac
7b50619705668b107bb7f274d1ba9350 *gd1979-02-07d1t07.flac
9594f2fd184dcedd3700556efdc35202 *gd1979-02-07d1t08.flac
80beb369a49be6849e46945782480642 *gd1979-02-07d1t09.flac
633d8cbb65ba989b8fe76d6fcb8bae4d *gd1979-02-07d1t10.flac
6891a2ac135983c872d5dc4be58f7891 *gd1979-02-07d1t11.flac
f2e71e037391a7a9226d403359da5ad8 *gd1979-02-07d1t12.flac

ffp

gd1979-02-07d1t01.flac:90fdd18167fd6c079cff424505b74797
gd1979-02-07d1t02.flac:ea43e263dd41372d7436ecbafbe01247
gd1979-02-07d1t03.flac:0a50ec23be9107e4a7fc90426a1cff4b
gd1979-02-07d1t04.flac:ca4b054beeaf750a9e1924b1ec9cd72b
gd1979-02-07d1t05.flac:18269ceaa7a9243eb4e3f4b96c100155
gd1979-02-07d1t06.flac:2f7e294c0145e1565468a672e576502b
gd1979-02-07d1t07.flac:5903d1f350ae5dd80fa78088b580304d
gd1979-02-07d1t08.flac:0aa9b2251799fccb712a03a7b310bdc1
gd1979-02-07d1t09.flac:8cf1818e9c7fc83c07570d6391d0c779
gd1979-02-07d1t10.flac:b12e79a696ed8aba92cc4e1b83df8264
gd1979-02-07d1t11.flac:395a7d77401c6114f63940a7f596c7d2
gd1979-02-07d1t12.flac:c228c01c83dfc1b99ace3e5304cb3ffc

shntool

    length     expanded size   cdr  WAVE problems filename
     2:32.45       26918684    ---   --   ---xx   gd1979-02-07d1t01.flac
     2:58.23       31453340    ---   --   ---xx   gd1979-02-07d1t02.flac
     4:31.22       47856188    ---   --   ---xx   gd1979-02-07d1t03.flac
     4:34.21       48383036    ---   --   ---xx   gd1979-02-07d1t04.flac
     7:18.70       77427884    ---   --   ---xx   gd1979-02-07d1t05.flac
     7:28.21       79076636    ---   --   ---xx   gd1979-02-07d1t06.flac
     5:46.03       61041500    ---   --   ---xx   gd1979-02-07d1t07.flac
     7:05.19       75014732    ---   --   ---xx   gd1979-02-07d1t08.flac
     4:57.37       52477868    ---   --   ---xx   gd1979-02-07d1t09.flac
     4:39.58       49352060    ---   --   ---xx   gd1979-02-07d1t10.flac
    10:14.51      108429596    ---   --   ---xx   gd1979-02-07d1t11.flac
     7:52.24       83317292    ---   --   ---xx   gd1979-02-07d1t12.flac
    69:59.19      740748816 B                     (totals for 12 files, 0.5407 overall compression ratio)

There were no sector boundary errors.
Show Checksums
ffp
gd1979-02-07d1t01.flac:90fdd18167fd6c079cff424505b74797
gd1979-02-07d1t02.flac:ea43e263dd41372d7436ecbafbe01247
gd1979-02-07d1t03.flac:0a50ec23be9107e4a7fc90426a1cff4b
gd1979-02-07d1t04.flac:ca4b054beeaf750a9e1924b1ec9cd72b
gd1979-02-07d1t05.flac:18269ceaa7a9243eb4e3f4b96c100155
gd1979-02-07d1t06.flac:2f7e294c0145e1565468a672e576502b
gd1979-02-07d1t07.flac:5903d1f350ae5dd80fa78088b580304d
gd1979-02-07d1t08.flac:0aa9b2251799fccb712a03a7b310bdc1
gd1979-02-07d1t09.flac:8cf1818e9c7fc83c07570d6391d0c779
gd1979-02-07d1t10.flac:b12e79a696ed8aba92cc4e1b83df8264
gd1979-02-07d1t11.flac:395a7d77401c6114f63940a7f596c7d2
gd1979-02-07d1t12.flac:c228c01c83dfc1b99ace3e5304cb3ffc
flac-md5
a1453ae9a42e04e12972b4b011c1d6e4 *gd1979-02-07d1t01.flac
400cdf477f12d6da23204b1e921b4afa *gd1979-02-07d1t02.flac
3c61d851e3669f46171a650c903060a1 *gd1979-02-07d1t03.flac
247d93e80a52194fc693bf13a20d99bc *gd1979-02-07d1t04.flac
12af37a44a4ea64f5f1a956c7ba7ba6c *gd1979-02-07d1t05.flac
cf21016fe35696b0e5121354b8ace9ae *gd1979-02-07d1t06.flac
7b50619705668b107bb7f274d1ba9350 *gd1979-02-07d1t07.flac
9594f2fd184dcedd3700556efdc35202 *gd1979-02-07d1t08.flac
80beb369a49be6849e46945782480642 *gd1979-02-07d1t09.flac
633d8cbb65ba989b8fe76d6fcb8bae4d *gd1979-02-07d1t10.flac
6891a2ac135983c872d5dc4be58f7891 *gd1979-02-07d1t11.flac
f2e71e037391a7a9226d403359da5ad8 *gd1979-02-07d1t12.flac

Comments
Add Comment
Other Sources (comments)
SBD>??>C>CD>EAC>SHN (low... (0)
Date User Comment