Browse Collections Artists Sources   Search Dates

Add Show    List Management    Help


Grateful Dead 05/24/72
The Strand Lyceum, London, England
Comments Add Comment    Source Collectors    Add to Collection    Add to Want List    History
Source # 87027 Other Sources
Entered by Matt Vernon
Checksums ffp , flac-md5
Disc Counts 1 / 2
Media Size
Date Circulated
Date Added
03/09/2007
09/03/2007
Source Summary flac16; source : aud > Pye mono cassette recorder (crappy model) with hand-held mike > mac transfer : mac > ampex R2R > cdr > eac > cep > cdwav > shn taped by Chris Jones transferred (untracked) to CDR by Graham Harper. Remastered by Sir Mick from the raw wav files. 
  Archive
Source Information - Download Text | Download Zip
Grateful Dead
The Lyceum,
London, England
05/24/1972

source : aud > Pye mono cassette recorder (crappy model) with hand-held mike > mac
transfer : mac > ampex R2R > cdr > eac > cep > cdwav > shn

taped by Chris Jones
transferred (untracked) to CDR by Graham Harper.

Disc 1
Set I

01   Cold Rain & Snow
02   Beat It On Down The Line
03   Mr Charlie
04   Deal
05   Me & My Uncle
06   It Hurts Me Too
07   Dire//Wolf //
08   Black // Throated Wind
09   Chinatown//Shuffle
10   Chinacat Sunflower >
11   I Know You Rider
12   Playin' In//The Band
13   You Win Again
14   Jack // Straw
15   Casey Jones


Disc 2
Set II

01   Rockin' Pneumonia & The Boogie Woogie Flu
02   Mexicali Blues
03   Black Peter
04   Mexican Hat Dance//
05   //Truck//in' >
06   Drums >
07   The Other One
08   Sing Me Back Home (fades)

       Sugar Magnolia> (missing)
       Turn On Your Lovelight (missing)
    
       encore
       One More Saturday Night (missing)


Notes:

I did remaster this before but I started with the file set that was in circulation at that time.  This time I started with the raw wav files, thanks Chris for sending them to me.

The cuts and wow & flutter are still there but I think that the sound is now a good improvement over previous versions.


edited & mastered (with iZotope Ozone & Waves Z-Noise)
SIRMick
August 2007


shntool output:

    length     expanded size   cdr  WAVE problems filename
     4:27.09       47120012    ---   --   ---xx   gd1972-05-24d1t01.flac
     3:16.22       34626188    ---   --   ---xx   gd1972-05-24d1t02.flac
     3:48.20       40266284    ---   --   ---xx   gd1972-05-24d1t03.flac
     4:26.14       46955372    ---   --   ---xx   gd1972-05-24d1t04.flac
     3:05.71       32801036    ---   --   ---xx   gd1972-05-24d1t05.flac
     7:30.67       79537628    ---   --   ---xx   gd1972-05-24d1t06.flac
     3:23.66       35964476    ---   --   ---xx   gd1972-05-24d1t07.flac
     5:48.04       61396652    ---   --   ---xx   gd1972-05-24d1t08.flac
     2:36.39       27610172    ---   --   ---xx   gd1972-05-24d1t09.flac
     6:11.04       65453852    ---   --   ---xx   gd1972-05-24d1t10.flac
     5:15.00       55566044    ---   --   ---xx   gd1972-05-24d1t11.flac
    12:09.12      128623868    ---   --   ---xx   gd1972-05-24d1t12.flac
     4:00.64       42486572    ---   --   ---xx   gd1972-05-24d1t13.flac
     4:46.01       50452796    ---   --   ---xx   gd1972-05-24d1t14.flac
     6:13.00       65797244    ---   --   ---xx   gd1972-05-24d1t15.flac
     5:28.02       57863948    ---   --   ---xx   gd1972-05-24d2t01.flac
     3:31.02       37225148    ---   --   ---xx   gd1972-05-24d2t02.flac
     8:51.56       93800156    ---   --   ---xx   gd1972-05-24d2t03.flac
     0:42.34        7488812    ---   --   ---xx   gd1972-05-24d2t04.flac
    10:39.54      112846652    ---   --   ---xx   gd1972-05-24d2t05.flac
     1:56.09       20483612    ---   --   ---xx   gd1972-05-24d2t06.flac
    29:40.68      314151980    ---   --   ---xx   gd1972-05-24d2t07.flac
     7:38.37       80878268    ---   --   ---xx   gd1972-05-24d2t08.flac
   145:26.55     1539396772 B                     (totals for 23 files, 0.3037 overall compression ratio)
Show Checksums
ffp
gd1972-05-24d1t01.flac:08ec21c6986bbd196097cd9a07a23240
gd1972-05-24d1t02.flac:2457a7a1bfdbc1d2e7418f96c526ede2
gd1972-05-24d1t03.flac:c83c381258582e960f3833a8dff5e92a
gd1972-05-24d1t04.flac:5ec352461299e760dd9e84341de9b4c2
gd1972-05-24d1t05.flac:41824f9f2468ddf958c622bb11460658
gd1972-05-24d1t06.flac:f5cc7f48595bae330a3a349293da3da5
gd1972-05-24d1t07.flac:430f798fab8cec58ae79932ca7bb2354
gd1972-05-24d1t08.flac:443b0dd6fb9386b78dcd6b9b8392c62f
gd1972-05-24d1t09.flac:14fdb23e404f2ace93ab70f074c6b510
gd1972-05-24d1t10.flac:32269a45068108fae23cf030e1e851ee
gd1972-05-24d1t11.flac:445a81dbecf64ff985609edb67f0a888
gd1972-05-24d1t12.flac:d87b88b66039d85e6c12925bee7f9416
gd1972-05-24d1t13.flac:d435f4e0ec6ad98c7cb3b2a1ddcbe4c3
gd1972-05-24d1t14.flac:11fb2649730fb8afb42ae8d42ed14574
gd1972-05-24d1t15.flac:fc38d26c0abc8e631c96d73bbe90afc3
gd1972-05-24d2t01.flac:a7cda741e9cb43349b049ea060fb66a0
gd1972-05-24d2t02.flac:29101b2e3b50c967f5716cf0157d1794
gd1972-05-24d2t03.flac:25dbf2ac2b91f9d820f0df67954c4dd4
gd1972-05-24d2t04.flac:3e735c99058867c799d3d01cfd8d252f
gd1972-05-24d2t05.flac:cf273c7c161850b09a319217b2ed9bdf
gd1972-05-24d2t06.flac:824108913e96fbeabc021a13fe70196c
gd1972-05-24d2t07.flac:41a7ae3b5264cb4dc15d72ab6b9bea85
gd1972-05-24d2t08.flac:36c3167f29e0d84c7b66de45700aef89
flac-md5
ccf573c28fd60b6c4161035c09fe7a29 *gd1972-05-24d1t01.flac
5311fcc40c52c3f6b3144833d5947e48 *gd1972-05-24d1t02.flac
310d6db3b250c0ad0b1789fc5125b6e2 *gd1972-05-24d1t03.flac
987ffaed824be4f49c87ffe3c23cc577 *gd1972-05-24d1t04.flac
bd697ecc5388e5e373b12f86ba25c860 *gd1972-05-24d1t05.flac
f27bd54f5c8f06c97fef1a410c3ab691 *gd1972-05-24d1t06.flac
7c511331108a86e02ad18df1ba379588 *gd1972-05-24d1t07.flac
b8098097badd3b2050effab3f7a0a502 *gd1972-05-24d1t08.flac
fc401481663b269ebf4ee626428135f4 *gd1972-05-24d1t09.flac
6cff1b37b1ed4ceaf3d252d8043aea88 *gd1972-05-24d1t10.flac
303691bfee519215575e6cececbc7477 *gd1972-05-24d1t11.flac
35c32e5b825b3c243b924ff4a6e8848b *gd1972-05-24d1t12.flac
3df9c27ea4066a9d9e2a0c827908918d *gd1972-05-24d1t13.flac
e2e94c6bbeb96673b1aba85830ae3981 *gd1972-05-24d1t14.flac
e2cc45e49aeceb2a15ec81f17b48fb56 *gd1972-05-24d1t15.flac
3f39b9e0370fc92f2bd22315817901f5 *gd1972-05-24d2t01.flac
2d0b776eb0c5acb1129e6ad5b2ad0074 *gd1972-05-24d2t02.flac
71ee91447505112b7dc0b0e02785c824 *gd1972-05-24d2t03.flac
3d9b02580b4ec315f2208a8b1b22a411 *gd1972-05-24d2t04.flac
48d271e2100ac1637912243c4ffc0804 *gd1972-05-24d2t05.flac
0657071da4304ef286441630eb072a40 *gd1972-05-24d2t06.flac
278ce24e7e447a9c77b5e5da614b9121 *gd1972-05-24d2t07.flac
1c976cc06dcc22fae84e7e48b52f58ef *gd1972-05-24d2t08.flac

Comments
Add Comment
Other Sources (comments)
AUD: mono crappy Pye... (0) source: aud: mono crappy... (0) flac16; Partial Set... (0)
Date User Comment