Browse Collections Artists Sources   Search Dates

Add Show    List Management    Help


Phish 02/24/03
Continental Airlines Arena, East Rutherford, NJ
Comments Add Comment    Source Collectors    Add to Collection    Add to Want List    History
Source # 87030 Other Sources
Entered by Ben Mohr
Checksums all_ffp , all_wav_md5
Disc Counts 2 / 3
Media Size
Date Circulated
Date Added
09/03/2007
09/03/2007
Source Summary Schoeps cmc6/mk41 > Lunatec V3 > Sonic AD2K+ > Tascam DA-P1 @44.1kHz; Tascam DA-20mkII > Tascam HD-P2 > WaveLab 5.01b > CDWav > FLAC; Taped by Jamie Lutch and Scott Gordon; Transferred by Jason Sobel 
Source Information - Download Text | Download Zip
Phish
February 24, 2003
Continental Airlines Arena
East Rutherford, NJ

source:
Schoeps cmc6/mk41 > Lunatec V3 > Sonic AD2K+ > Tascam DA-P1 (@ 44.1 kHz)

transfer:
Tascam DA-20MKII > Tascam HD-P2 > CF card > usb 2.0 > pc > WaveLab 5.01b (fades) > CD Wave v1.96.1 > FLAC v1.2.0 (Level 8)

FLAC tags added with metaflac v1.2.0

recorded by Jamie Lutch & Scott Gordon
transferred by Jason Sobel ([email protected])
seeded September 3, 2007

Disc 1 - [66:36]
Set I
01 - [15:34] - Down with Disease
02 - [06:03] - Corinne Corrina
03 - [09:59] - Wolfman's Brother >
04 - [11:35] - Limb by Limb
05 - [23:24] - Everyday (I Have the Blues) *

Disc 2 - [66:26]
Set I continued
01 - [18:23] - The Thrill is Gone *
02 - [12:15] - Rock Me Baby *
Set II
03 - [14:14] - Halley's Comet >
04 - [13:34] - Harry Hood >
05 - [08:00] - Heavy Things

Disc 3 - [55:10]
Set II continued
01 - [18:16] - Twist
02 - [04:56] - All of These Dreams
03 - [08:30] - Waves >
04 - [04:53] - Sample In A Jar >
05 - [09:26] - Chalk Dust Torture
06 - [02:35] - encore break
07 - [06:34] - Farmhouse

* with B.B. King, first time played by Phish

---------------------------------------------------------------------------------------------------------

SHNtool output:

    length     expanded size   cdr  WAVE problems filename
    15:34.29      164825852    ---   --   ---xx   ph2003-02-24d1t01.flac
     6:03.37       64120268    ---   --   ---xx   ph2003-02-24d1t02.flac
     9:59.26      105724796    ---   --   ---xx   ph2003-02-24d1t03.flac
    11:34.38      122511020    ---   --   ---xx   ph2003-02-24d1t04.flac
    23:23.69      247651532    ---   --   ---xx   ph2003-02-24d1t05.flac
    18:22.58      194529260    ---   --   ---xx   ph2003-02-24d2t01.flac
    12:14.43      129578780    ---   --   ---xx   ph2003-02-24d2t02.flac
    14:14.05      150657404    ---   --   ---xx   ph2003-02-24d2t03.flac
    13:34.28      143655500    ---   --   ---xx   ph2003-02-24d2t04.flac
     8:00.37       84759068    ---   --   ---xx   ph2003-02-24d2t05.flac
    18:16.05      193346204    ---   --   ---xx   ph2003-02-24d3t01.flac
     4:56.01       52216796    ---   --   ---xx   ph2003-02-24d3t02.flac
     8:29.63       89935820    ---   --   ---xx   ph2003-02-24d3t03.flac
     4:53.32       51760508    ---   --   ---xx   ph2003-02-24d3t04.flac
     9:25.58       99802460    ---   --   ---xx   ph2003-02-24d3t05.flac
     2:34.73       27337340    ---   --   ---xx   ph2003-02-24d3t06.flac
     6:33.73       69496940    ---   --   ---xx   ph2003-02-24d3t07.flac
   188:12.00     1991909548 B                     (totals for 17 files, 0.5446 overall compression ratio)
Show Checksums
all_ffp
ph2003-02-24d1t01.flac:014417dd8a934956e5ea7aa2e84cfe0a
ph2003-02-24d1t02.flac:df38ab4f9fd1654a89d33e5d736dd1ec
ph2003-02-24d1t03.flac:457f801c032428c63f24770e2c6646ef
ph2003-02-24d1t04.flac:cf7bb1ba529746d4b56e07e93921fe7c
ph2003-02-24d1t05.flac:9a3be01dba064e7eb17128df1f63d90a
ph2003-02-24d2t01.flac:20b49b3e8a1621566ccca7d558c9e2e9
ph2003-02-24d2t02.flac:9fb486badf40bcddc101cc67596b85bd
ph2003-02-24d2t03.flac:7a0a18a1f70109717e31c2d442a3291f
ph2003-02-24d2t04.flac:1c59d2ae36ab6a9f413d0ec706ab154b
ph2003-02-24d2t05.flac:232c7c8502d74412442f8d7910fbdaf0
ph2003-02-24d3t01.flac:4fa74a1960457e8844f78eff24ac73b8
ph2003-02-24d3t02.flac:a56af68e672b386e2612737b27bc019c
ph2003-02-24d3t03.flac:d25e8f50a220b35573fcade74476aef0
ph2003-02-24d3t04.flac:9af1ef717a7f0708a2c1351ca09e7b34
ph2003-02-24d3t05.flac:43f9200aa5700b7ab240ab6b97e95cef
ph2003-02-24d3t06.flac:e712e200e5ea928cef0481974f24c5e1
ph2003-02-24d3t07.flac:8bd2dbc8247fd156f50eb5611015cabe
all_wav_md5
8afe7349914671dacf748ee5bb84cd66 *ph2003-02-24d1t01.wav
42acbfcf3554775236162efe83e02027 *ph2003-02-24d1t02.wav
42f041022f35cdf68b0d95b74ff590f9 *ph2003-02-24d1t03.wav
b6d02efb1b306707e1874999b073b5a5 *ph2003-02-24d1t04.wav
78b4d7a1dc7f1b1736f94e6e617a3d1a *ph2003-02-24d1t05.wav
71dd804a6c753b3142ed4dd426d0e892 *ph2003-02-24d2t01.wav
6c0fd5ded1283967810a93d8d28e919d *ph2003-02-24d2t02.wav
02c86e0255637e5e32c62c2b51491fc8 *ph2003-02-24d2t03.wav
348564b111f683a88ef07d75c2edca94 *ph2003-02-24d2t04.wav
b4e00d7902354430dee6d96c0b2199aa *ph2003-02-24d2t05.wav
7a7f3318a786a750b171493653fccc37 *ph2003-02-24d3t01.wav
5aefbc759eb900d5efd0c9ae5893aa0d *ph2003-02-24d3t02.wav
4a32b6e04f4c49d9c5376dcc6fde5699 *ph2003-02-24d3t03.wav
3bea5412930465ef4564aeb0f69ffbb1 *ph2003-02-24d3t04.wav
56e1ae44a96e03010b2e4c0279c29489 *ph2003-02-24d3t05.wav
e43058a643f375588defc4591428848b *ph2003-02-24d3t06.wav
b5debd85943099538732d8e99f4806e3 *ph2003-02-24d3t07.wav

Comments
Add Comment
Other Sources (comments)
Audio Technica AT825 > MP2... (5) LivePhish SHN download;... (1) Schoeps mk41 > kc5 > CMC6 >... (0) flac16; Microtech... (0) flac16 44.1kHz... (0)
Date User Comment