Browse Collections Artists Sources   Search Dates

Add Show    List Management    Help


Outformation 09/01/07
The Pour House, James Island, SC
Comments Add Comment    Source Collectors    Add to Collection    Add to Want List    History
Source # 87041 Other Sources
Entered by Todd
Checksums shntool , ffp
Disc Counts 2 / 2
Media Size
Date Circulated
Date Added
09/03/2007
09/04/2007
Source Summary [Peluso CEMC6/CK4 (ortf/onstage/dfc)] + [SBD (Allen & Heath GL2400)] -> BMp+ mod UA-5 -> JB3 -> Creative Play Center -> CD Wave Editor -> FLAC (Level 6) by Chris Davis 
Source Information - Download Text | Download Zip
Outformation
The Pour House
James Island, SC
September 1, 2007 (Saturday)

source:  [Peluso CEMC6/CK4 (ortf/onstage/dfc)] + [SBD (Allen & Heath GL2400)] -> BMp+ mod UA-5 -> JB3
transfer:  JB3 -> Creative Play Center -> CD Wave Editor -> FLAC (Level 6)

taped/transferred/seeded:  Chris Davis

Disc 1:     (71:47)
Set 1:
01.  (11:32)  Start it Out Again
02.  (6:33)   Edgewater
03.  (6:34)   Winds
04.  (7:28)   Later
05.  (4:36)   SG
06.  (10:29)  Unwound ->
07.  (3:42)   Solid Country Gold

Set 2:
08.  (1:58)   tuning* ->
09.  (6:17)   Titles of Movies Will not Appear on the Bill*
10.  (12:38)  24 Hours at a Time

Disc 2:     (69:22)
Set 2 (cont):
01.  (10:09)  Traveler's Rest
02.  (5:15)   Can't Change the Past
03.  (8:23)   West L.A. Fadeaway
04.  (15:41)  Stone in My Shoe
05.  (5:51)   Titles of Movies Will not Appear on the Bill (reprise)

Encore:
06.  (1:15)   crowd/tuning
07.  (4:19)   CR solo
08.  (4:36)   Tulsa Time
09.  (3:23)   Burned Faceless ->
10.  (4:18)   D Jam ->
11.  (6:12)   Long Hard Ride

*with Brian Watson on alto sax

--Thanks to Charles Fox for patching me into the SBD feed.
--As always, thanks to Col. George (ret.) for keeping an eye on things.
Show Checksums
shntool
length expanded size cdr WAVE problems fmt ratio filename
11:32.66 122224076 B --- -- ----- wav 1.0000 of2007-09-01d1t01.wav
6:33.44 69428732 B --- -- ----- wav 1.0000 of2007-09-01d1t02.wav
6:34.56 69633356 B --- -- ----- wav 1.0000 of2007-09-01d1t03.wav
7:28.12 79055468 B --- -- ----- wav 1.0000 of2007-09-01d1t04.wav
4:36.03 48693500 B --- -- ----- wav 1.0000 of2007-09-01d1t05.wav
10:29.60 111096764 B --- -- ----- wav 1.0000 of2007-09-01d1t06.wav
3:42.02 39165548 B --- -- ----- wav 1.0000 of2007-09-01d1t07.wav
1:58.40 20909324 B --- -- ----- wav 1.0000 of2007-09-01d1t08.wav
6:17.58 66639260 B --- -- ----- wav 1.0000 of2007-09-01d1t09.wav
12:38.31 133784156 B --- -- ----- wav 1.0000 of2007-09-01d1t10.wav
10:09.26 107488796 B --- -- ----- wav 1.0000 of2007-09-01d2t01.wav
5:15.39 55657772 B --- -- ----- wav 1.0000 of2007-09-01d2t02.wav
8:23.63 88877420 B --- -- ----- wav 1.0000 of2007-09-01d2t03.wav
15:41.44 166095932 B --- -- ----- wav 1.0000 of2007-09-01d2t04.wav
5:51.53 62041100 B --- -- ----- wav 1.0000 of2007-09-01d2t05.wav
1:15.31 13302956 B --- -- ----- wav 1.0000 of2007-09-01d2t06.wav
4:19.63 45835820 B --- -- ----- wav 1.0000 of2007-09-01d2t07.wav
4:36.50 48804044 B --- -- ----- wav 1.0000 of2007-09-01d2t08.wav
3:23.57 35943308 B --- -- ----- wav 1.0000 of2007-09-01d2t09.wav
4:18.08 45530060 B --- -- ----- wav 1.0000 of2007-09-01d2t10.wav
6:12.22 65672588 B --- -- ----- wav 1.0000 of2007-09-01d2t11.wav
141:20.03 1495879980 B 1.0000 (21 files)
ffp
of2007-09-01d1t01.flac:71d13b813bf62fc38e923bd5ecabdfda
of2007-09-01d1t02.flac:d3bca93c5ddecd9c52c5dd720c5f2155
of2007-09-01d1t03.flac:a0c9f0646d50c5aa4aa829523f014fe4
of2007-09-01d1t04.flac:ce6ce544d3728934efa4580a98d7016a
of2007-09-01d1t05.flac:b2b3279c16c4c30d7d8a6842b3aefde9
of2007-09-01d1t06.flac:0df1457f07de459121dac69f388ffa63
of2007-09-01d1t07.flac:c6887ebcda5c3140942d824422ca2802
of2007-09-01d1t08.flac:990830159bf98df6a7e0df1a32922dca
of2007-09-01d1t09.flac:87d9aa51fedeae741581e364d17e854d
of2007-09-01d1t10.flac:812fce96b03b38254382c9a572751ad7
of2007-09-01d2t01.flac:8a097f150e3bfa4fc67999b7e2a0c260
of2007-09-01d2t02.flac:077322ecc4ed3af57f2ad47ee830926d
of2007-09-01d2t03.flac:060b75080077324cff0435dd4c343348
of2007-09-01d2t04.flac:22697af6928335f576a5fc570b60113f
of2007-09-01d2t05.flac:bd41acd6c199f8e9c894b70b59052a2c
of2007-09-01d2t06.flac:a4fac1d575230ee6d46983555a52b974
of2007-09-01d2t07.flac:29839a7b25f1820d4b02ce626eef934b
of2007-09-01d2t08.flac:e8a35df96768b0d9fbfebbadc1964456
of2007-09-01d2t09.flac:0bb442ce6675622db6a5f27bf7c4635d
of2007-09-01d2t10.flac:50433a58296ae464c3663859511e9c59
of2007-09-01d2t11.flac:ffdfa945dc6819db969040c86df8a487

Comments
Add Comment
Date User Comment