Browse Collections Artists Sources   Search Dates

Add Show    List Management    Help


Grateful Dead 03/22/85
Hampton Coliseum, Hampton, VA
Comments Add Comment    Source Collectors    Add to Collection    Add to Want List    History
Source # 87093 Other Sources
Entered by Matt Vernon
Checksums orig-flac-md5 , flac-md5 , ffp
Disc Counts 2 / 2
Media Size
Date Circulated
Date Added
09/07/2007
09/07/2007
Source Summary flac16; Taper Joe D'Amico Nak 300 Mics > Sony D5 Nak Dragon Tape Deck > Creative Extigy Soundcard > Cooledit Pro > Flac Frontend 
  Archive
Source Information - Download Text | Download Zip
grateful dead, hampton coliseum, hampton, va 3/22/85

taper Joe D'Amico ''aka'' Joebeacon

nak 300 mics > sony d5

nak dragon tape deck > creative extigy soundcard > cooledit pro > flac frontend

Set 1:
d1t01  Feel Like A Stranger
d1t02  Cold Rain & Snow
d1t03  C.C. Rider
d1t04  Brown Eyed Women
d1t05  Cassidy
d1t06  Big Railroad Blues
d1t07  Brother Esau
d1t08  Don't Ease Me In

Set 2:
d1t09  Scarlet Begonias >
d1t10  Hell In A Bucket
d1t11  Ship Of Fools
d2t01  Terrapin Station >
d2t02  Drums >
d2t03  Space >
d2t04  Spanish Jam >
d2t05  Truckin' >
d2t06  Smokestack Lighting >
d2t07  Black Peter >
d2t08  Sugar Magnolia

Encore :
d2t09  It's All Over Now Baby Blue


slight cut in the end of terrapin station during the jam leading up to drums due to tape flip
slight cut after black peter before sugar magnolia due to tape flip


SHNTOOL LEN OUTPUT
    length     expanded size    cdr  WAVE problems  fmt   ratio  filename
    11:01.46      116708636 B   ---   --   ---xx   flac  0.6236  disc101.flac
     6:56.04       73391852 B   ---   --   ---xx   flac  0.6453  disc102.flac
     8:01.35       84930764 B   ---   --   ---xx   flac  0.6391  disc103.flac
     6:12.07       65637308 B   ---   --   ---xx   flac  0.6289  disc104.flac
     6:00.58       63640460 B   ---   --   ---xx   flac  0.6311  disc105.flac
     5:59.50       63445244 B   ---   --   ---xx   flac  0.6321  disc106.flac
     4:55.52       52160348 B   ---   --   ---xx   flac  0.6065  disc107.flac
     3:22.37       35719868 B   ---   --   ---xx   flac  0.6346  disc108.flac
    10:46.70      114119084 B   ---   --   ---xx   flac  0.6411  disc109.flac
     6:30.08       68814860 B   ---   --   ---xx   flac  0.6526  disc110.flac
     9:38.50      102076844 B   ---   --   ---xx   flac  0.5951  disc111.flac
    16:03.09      169894412 B   ---   --   ---xx   flac  0.6129  disc201.flac
     7:11.50       76146044 B   ---   --   ---xx   flac  0.5644  disc202.flac
     9:43.65      102994124 B   ---   --   ---xx   flac  0.5539  disc203.flac
     3:04.48       32570540 B   ---   --   ---xx   flac  0.5550  disc204.flac
     7:21.42       77891228 B   ---   --   ---xx   flac  0.6488  disc205.flac
     4:58.60       52708364 B   ---   --   ---xx   flac  0.6084  disc206.flac
     8:22.67       88710428 B   ---   --   ---xx   flac  0.5981  disc207.flac
     9:10.36       97104716 B   ---   --   ---xx   flac  0.6606  disc208.flac
     7:11.09       76049612 B   ---   --   ---xx   flac  0.6121  disc209.flac
   152:33.53     1614714736 B                            0.6179  (20 files)


Show Checksums
orig-flac-md5
cd50c472dbb0ae848d72b1809c7e9eff *disc101-feel like a stranger.flac
6d9bda053cd4b324ecc617df9837e0cf *disc102-cold rain & snow.flac
32fa167d8236b81714e5e5067f684712 *disc103-c.c. rider.flac
8e05e15bf34abdd71fd1f8c323274b52 *disc104-brown eyed women.flac
1301aa1a63fe27bab0b00ea9ce1d5bd8 *disc105-cassidy.flac
d9aa705dbc16927d840ddb040d4a430b *disc106-big railroad blues.flac
8ca1e7648ed2fd4b5887c13ab8b5e5a4 *disc107-brother esau.flac
e5a32bc20a03eba09719dd736afd8253 *disc108-don't ease me in.flac
9f8d4821646afc204d956da4ed0234cb *disc109-scarlet begonias.flac
863ad7432e8680690f68e307094e9816 *disc110-hell in a bucket.flac
eea4c0139f03eaf948fa70913b087e5f *disc111-ship of fools.flac
45769878f5f91334c525ddfd17bcdbbb *disc201-terrapin station.flac
ea66047932ce3cd5df9d0a236510ee4c *disc202-drums.flac
85dbd602de35ae707b0060117993b0c5 *disc203-space.flac
3400463edfc2a718f1940a0d3f493db2 *disc204-spanish jam.flac
4b9ef839ecbc266a58e5b8a6259c57a2 *disc205-truckin'.flac
64b9627c4d14af4b3a1683c176d6df93 *disc206-smokestack lightin'.flac
9684e9ba2f2c8686abdb5d328f4761d3 *disc207-black peter.flac
a83d9c1493768e119e1b3c3df4686383 *disc208-sugar magnolia.flac
db7dc37bec154f0ee7e2ce066c5e1286 *disc209-it's all over now baby blue.flac
flac-md5
cd50c472dbb0ae848d72b1809c7e9eff *disc101.flac
6d9bda053cd4b324ecc617df9837e0cf *disc102.flac
32fa167d8236b81714e5e5067f684712 *disc103.flac
8e05e15bf34abdd71fd1f8c323274b52 *disc104.flac
1301aa1a63fe27bab0b00ea9ce1d5bd8 *disc105.flac
d9aa705dbc16927d840ddb040d4a430b *disc106.flac
8ca1e7648ed2fd4b5887c13ab8b5e5a4 *disc107.flac
e5a32bc20a03eba09719dd736afd8253 *disc108.flac
9f8d4821646afc204d956da4ed0234cb *disc109.flac
863ad7432e8680690f68e307094e9816 *disc110.flac
eea4c0139f03eaf948fa70913b087e5f *disc111.flac
45769878f5f91334c525ddfd17bcdbbb *disc201.flac
ea66047932ce3cd5df9d0a236510ee4c *disc202.flac
85dbd602de35ae707b0060117993b0c5 *disc203.flac
3400463edfc2a718f1940a0d3f493db2 *disc204.flac
4b9ef839ecbc266a58e5b8a6259c57a2 *disc205.flac
64b9627c4d14af4b3a1683c176d6df93 *disc206.flac
9684e9ba2f2c8686abdb5d328f4761d3 *disc207.flac
a83d9c1493768e119e1b3c3df4686383 *disc208.flac
db7dc37bec154f0ee7e2ce066c5e1286 *disc209.flac
ffp
disc101.flac:418855e75ad0d14600ead820e6a40a6b
disc102.flac:c54866aa4e1168a01bea9cf7cb5169dd
disc103.flac:762db8265d42b53988928218d2fc81e1
disc104.flac:245b123f5bdcd66863a5ae4a29aef23c
disc105.flac:bc3b13601372e55ecd370702ebfb7aac
disc106.flac:da3dffaef822643730f816276f6e74cb
disc107.flac:aacd7905cb7136e22d0a3332a07914b6
disc108.flac:8ab4114ffbe386e5506b86c70d08ae8b
disc109.flac:ec8415982aa55db80ea315e55f27cd1e
disc110.flac:417e216266a7836aae87e61c85cf0029
disc111.flac:0084eed5b0957b9c0f844bb9de0272dd
disc201.flac:f56db0fc507611e198eeb4d88cc5d286
disc202.flac:b21ef0c32ed40d659e3135301dff5e2f
disc203.flac:f8729ca7f95c938300cd12cdd51e31c8
disc204.flac:8dee6696b9759b985a11d9c1f8514b5d
disc205.flac:e04b124e46727618653a543b2b8af841
disc206.flac:e5fadad6218e29102daad924baa01917
disc207.flac:c0742bd1539184cd2a860e76831344a8
disc208.flac:1d9dbe227ffd43d91fed5e2951af2021
disc209.flac:fa74ff29ae201539103f69b565252337

Comments
Add Comment
Other Sources (comments)
2nd set only;... (0) Taper:Mark Gibbs Nak 300's... (1) Oade Brothers Recording:... (0) MAC (FOB) 2 Sennheiser... (0) Source: unknown shotgun... (0) flac16; Source: 2... (0) flac24; lineage:... (0) flac24; Robert... (1) flac24; Robert... (0) flac16; Robert... (0)
Date User Comment