Browse Collections Artists Sources   Search Dates

Add Show    List Management    Help


Grateful Dead 10/18/83
Cumberland County Civic Center, Portland, ME
Comments Add Comment    Source Collectors    Add to Collection    Add to Want List    History
Source # 87180 Other Sources
Entered by Matt Vernon
Checksums ffp , flac-md5
Disc Counts 2 / 3
Media Size
Date Circulated
Date Added
09/09/2007
09/10/2007
Source Summary flac16; Set One Source: Sennheiser MD-421's > patched thru one deck > Marantz PMD-360 > Maxell XL-II, with no Dolby. Mics on stand, set up FOB. Taped by Ted Carpenter. Set Two source: First-gen cassette from another taper on the floor, equipment unknown. Transfer: MAC/1st Gen > Nakamichi BX-125 (no Dolby) > Audiophile 2496 > Soundforge > CD-Wave > TLH > FLAC. Transferred by Andrew F. 
  Archive
Source Information - Download Text | Download Zip
GRATEFUL DEAD
Cumberland County Civic Center
Portland ME
10-18-1983

Disc One (67:18)

01 crowd & tuning
02 Jack Straw
03 They Love Eachother
04 Me & My Uncle >
05 Mexicali Blues
06 Dupree's Diamond Blues
07 C.C. Rider
08 Althea
09 Lazy Lightnin' >
10 Supplication >
11 Might as Well
-- set break --

Disc Two (46:37)

01 China Cat Sunflower >
02 I Know You Rider
03 Estimated Prophet >
04 He's Gone >
05 Drums// (tape flip)

Disc Three (47:54)

01 Space >
02 Not Fade Away >
03 Black Peter >
04 Around & Around >
05 Sugar Magnolia
-- encore --
06 U.S. Blues

Set One Source: Sennheiser MD-421's > patched thru one deck >
Marantz PMD-360 > Maxell XL-II, with no Dolby. Mics on stand,
set up FOB. Taped by Ted Carpenter. Set Two source: First-gen
cassette from another taper on the floor, equipment unknown.

Transfer: MAC/1st Gen > Nakamichi BX-125 (no Dolby) > Audiophile
2496 > Soundforge > CD-Wave > TLH > FLAC. Transferred by Andrew F.

Soure note: Unfortunately, Ted's 2nd set tape was recorded wrong
and is not usable for transfer. Ted secured a replacement tape soon
after the show. In the interest of completeness, it is included in
this file-set. The 1st set tape is excellent, and the 2nd set tape
is pretty close in sound quality...

Notes:
- Tape flip at end of drums, seems to be very little missing.
- Throwing Stones hint after Not Fade Away.
- ShnID-12484 provides patch at end of U.S. Blues, 4:34 > 5:42.
- Soundforge used for fades, edits, levels adjust, add patch.
- TLH used for SBE-OK, FLAC compression, and checksums.

md5

c3c43be2d86bb245a3761ccaf2023574 *gd1983-10-18d1t01.flac
1b78dd536229b041d1b5cda1fc51d62b *gd1983-10-18d1t02.flac
7e19392e0f0d544416d35daeac234ff8 *gd1983-10-18d1t03.flac
1925a7c920f86854fb471bf49bcd4c9f *gd1983-10-18d1t04.flac
e5a3d9b2770ee91e145e4f40431198fe *gd1983-10-18d1t05.flac
2083157582a6e65efd2424ba872e1a90 *gd1983-10-18d1t06.flac
d1c623fe49405f901196542cd9a56fac *gd1983-10-18d1t07.flac
67bdf5aa86265b1623c75b79aeb1ff4e *gd1983-10-18d1t08.flac
5a43894335f5e5a2d968f760decc210b *gd1983-10-18d1t09.flac
df465af239faabca0cd569c026df2b35 *gd1983-10-18d1t10.flac
f7f13e0e7832aee4a15d2dd37e634d51 *gd1983-10-18d1t11.flac
e8fb9a37886fa8b26353e79cc4e0eced *gd1983-10-18d2t01.flac
acb14b238504df105b15843f57a45ae8 *gd1983-10-18d2t02.flac
f49b32e3a6c49f953d865f03dd72d164 *gd1983-10-18d2t03.flac
8fd8c9575e82725c042a1d9ab078f0a2 *gd1983-10-18d2t04.flac
88ce7603cdbeb765ab5b72b543e3db7e *gd1983-10-18d2t05.flac
087b3f5a3382b0f4a96dc087a598e8d0 *gd1983-10-18d3t01.flac
8e0045c181ab342fc20d4e8d071a3981 *gd1983-10-18d3t02.flac
c97504c6894698f677ec3b232ee9b5a6 *gd1983-10-18d3t03.flac
af5f3035cf48a2d5da8e223a5c3d1085 *gd1983-10-18d3t04.flac
3dd76a910edb397f8f9588c3225c4ddf *gd1983-10-18d3t05.flac
139f1d447ca7243cfe09413f6d4257f3 *gd1983-10-18d3t06.flac

ffp

gd1983-10-18d1t01.flac:3945ad75dd2e37fbe1bc257904e95344
gd1983-10-18d1t02.flac:06387a2dfff692d6f14b7654328f640f
gd1983-10-18d1t03.flac:03265617dc4e68d4993ffb4b53476f62
gd1983-10-18d1t04.flac:92fa85a8d1429b742e6d746a3c94141c
gd1983-10-18d1t05.flac:911817ab66568d9a9e7d088189e47123
gd1983-10-18d1t06.flac:625e481336bec18748db55df273ddc75
gd1983-10-18d1t07.flac:a120343c1f072799abf659f5d18bfe1a
gd1983-10-18d1t08.flac:08ae807a1a8a6fa078c564c1a9eb734b
gd1983-10-18d1t09.flac:ec97195c7d8057ed5b8860f3cf21f326
gd1983-10-18d1t10.flac:4f0c1515c7fd858bf746efe6452000d7
gd1983-10-18d1t11.flac:22f3f6748d9b3c033e26e5aafb672cc8
gd1983-10-18d2t01.flac:c501532ca499f9f1957c1744bf4ff9b5
gd1983-10-18d2t02.flac:6085caa651c44cfa49e2aef2b0265de0
gd1983-10-18d2t03.flac:4216f65077c219575a60512b84bb66d6
gd1983-10-18d2t04.flac:163130bccbd5b07a80a3b8986c5f01b9
gd1983-10-18d2t05.flac:9aa9d416926c9af7c23be61f9dae9700
gd1983-10-18d3t01.flac:9e5837ef60cbb0d4fd6523281f62f86d
gd1983-10-18d3t02.flac:520880bfbea34ed5da0cbe4510e4fa05
gd1983-10-18d3t03.flac:9a9b1861059db16edbde355405e13dcc
gd1983-10-18d3t04.flac:e0a6dd1d38f496585045bf9df52ca391
gd1983-10-18d3t05.flac:8f7524cb6068e45e5ae87c7fb37f1059
gd1983-10-18d3t06.flac:03a053b2afd8ad70afe160329508a2a6

shntool

    length     expanded size   cdr  WAVE problems filename
     1:16.45       13512284    ---   --   ---xx   gd1983-10-18d1t01.flac
     6:47.24       71851292    ---   --   ---xx   gd1983-10-18d1t02.flac
     8:54.70       94362284    ---   --   ---xx   gd1983-10-18d1t03.flac
     2:56.51       31166396    ---   --   ---xx   gd1983-10-18d1t04.flac
     5:36.67       59428028    ---   --   ---xx   gd1983-10-18d1t05.flac
     6:11.18       65486780    ---   --   ---xx   gd1983-10-18d1t06.flac
     9:24.41       99586076    ---   --   ---xx   gd1983-10-18d1t07.flac
     9:53.20      104652284    ---   --   ---xx   gd1983-10-18d1t08.flac
     3:46.62       40012268    ---   --   ---xx   gd1983-10-18d1t09.flac
     8:02.20       85071884    ---   --   ---xx   gd1983-10-18d1t10.flac
     4:28.03       47282300    ---   --   ---xx   gd1983-10-18d1t11.flac
     8:44.03       92440700    ---   --   ---xx   gd1983-10-18d2t01.flac
     6:15.00       66150044    ---   --   ---xx   gd1983-10-18d2t02.flac
    12:02.69      127523132    ---   --   ---xx   gd1983-10-18d2t03.flac
     9:38.29      102027452    ---   --   ---xx   gd1983-10-18d2t04.flac
     9:57.30      105381404    ---   --   ---xx   gd1983-10-18d2t05.flac
    10:00.74      106014092    ---   --   ---xx   gd1983-10-18d3t01.flac
     9:46.09      103391612    ---   --   ---xx   gd1983-10-18d3t02.flac
     8:33.51       90613196    ---   --   ---xx   gd1983-10-18d3t03.flac
     3:46.57       40000508    ---   --   ---xx   gd1983-10-18d3t04.flac
    10:03.48      106482140    ---   --   ---xx   gd1983-10-18d3t05.flac
     5:42.68       60488780    ---   --   ---xx   gd1983-10-18d3t06.flac
   161:50.34     1712924936 B                     (totals for 22 files, 0.5864 overall compression ratio)

There were no sector boundary errors.
Show Checksums
ffp
gd1983-10-18d1t01.flac:3945ad75dd2e37fbe1bc257904e95344
gd1983-10-18d1t02.flac:06387a2dfff692d6f14b7654328f640f
gd1983-10-18d1t03.flac:03265617dc4e68d4993ffb4b53476f62
gd1983-10-18d1t04.flac:92fa85a8d1429b742e6d746a3c94141c
gd1983-10-18d1t05.flac:911817ab66568d9a9e7d088189e47123
gd1983-10-18d1t06.flac:625e481336bec18748db55df273ddc75
gd1983-10-18d1t07.flac:a120343c1f072799abf659f5d18bfe1a
gd1983-10-18d1t08.flac:08ae807a1a8a6fa078c564c1a9eb734b
gd1983-10-18d1t09.flac:ec97195c7d8057ed5b8860f3cf21f326
gd1983-10-18d1t10.flac:4f0c1515c7fd858bf746efe6452000d7
gd1983-10-18d1t11.flac:22f3f6748d9b3c033e26e5aafb672cc8
gd1983-10-18d2t01.flac:c501532ca499f9f1957c1744bf4ff9b5
gd1983-10-18d2t02.flac:6085caa651c44cfa49e2aef2b0265de0
gd1983-10-18d2t03.flac:4216f65077c219575a60512b84bb66d6
gd1983-10-18d2t04.flac:163130bccbd5b07a80a3b8986c5f01b9
gd1983-10-18d2t05.flac:9aa9d416926c9af7c23be61f9dae9700
gd1983-10-18d3t01.flac:9e5837ef60cbb0d4fd6523281f62f86d
gd1983-10-18d3t02.flac:520880bfbea34ed5da0cbe4510e4fa05
gd1983-10-18d3t03.flac:9a9b1861059db16edbde355405e13dcc
gd1983-10-18d3t04.flac:e0a6dd1d38f496585045bf9df52ca391
gd1983-10-18d3t05.flac:8f7524cb6068e45e5ae87c7fb37f1059
gd1983-10-18d3t06.flac:03a053b2afd8ad70afe160329508a2a6
flac-md5
c3c43be2d86bb245a3761ccaf2023574 *gd1983-10-18d1t01.flac
1b78dd536229b041d1b5cda1fc51d62b *gd1983-10-18d1t02.flac
7e19392e0f0d544416d35daeac234ff8 *gd1983-10-18d1t03.flac
1925a7c920f86854fb471bf49bcd4c9f *gd1983-10-18d1t04.flac
e5a3d9b2770ee91e145e4f40431198fe *gd1983-10-18d1t05.flac
2083157582a6e65efd2424ba872e1a90 *gd1983-10-18d1t06.flac
d1c623fe49405f901196542cd9a56fac *gd1983-10-18d1t07.flac
67bdf5aa86265b1623c75b79aeb1ff4e *gd1983-10-18d1t08.flac
5a43894335f5e5a2d968f760decc210b *gd1983-10-18d1t09.flac
df465af239faabca0cd569c026df2b35 *gd1983-10-18d1t10.flac
f7f13e0e7832aee4a15d2dd37e634d51 *gd1983-10-18d1t11.flac
e8fb9a37886fa8b26353e79cc4e0eced *gd1983-10-18d2t01.flac
acb14b238504df105b15843f57a45ae8 *gd1983-10-18d2t02.flac
f49b32e3a6c49f953d865f03dd72d164 *gd1983-10-18d2t03.flac
8fd8c9575e82725c042a1d9ab078f0a2 *gd1983-10-18d2t04.flac
88ce7603cdbeb765ab5b72b543e3db7e *gd1983-10-18d2t05.flac
087b3f5a3382b0f4a96dc087a598e8d0 *gd1983-10-18d3t01.flac
8e0045c181ab342fc20d4e8d071a3981 *gd1983-10-18d3t02.flac
c97504c6894698f677ec3b232ee9b5a6 *gd1983-10-18d3t03.flac
af5f3035cf48a2d5da8e223a5c3d1085 *gd1983-10-18d3t04.flac
3dd76a910edb397f8f9588c3225c4ddf *gd1983-10-18d3t05.flac
139f1d447ca7243cfe09413f6d4257f3 *gd1983-10-18d3t06.flac

Comments
Add Comment
Other Sources (comments)
FOB-AUD> MC> CDR; via Paul... (0) flac16; Recording... (0) flac16; (FOB)... (0) flac16; Lineage:... (0) flac24; (FOB)... (0) flac16; Source: 2... (0) flac16; 3 - Nak... (0) flac24; lineage:... (0) flac16; Master... (0) flac24; Master... (0) flac24; Recording... (0) flac16; Recording... (0) flac1648; Master... (0)
Date User Comment