Browse Collections Artists Sources   Search Dates

Add Show    List Management    Help


Outformation 08/31/07
The Pour House, James Island, SC
Comments Add Comment    Source Collectors    Add to Collection    Add to Want List    History
Source # 87199 Other Sources
Entered by Todd
Checksums shntool , ffp
Disc Counts 2 / 3
Media Size
Date Circulated
Date Added
09/06/2007
09/11/2007
Source Summary (clamped to ceiling / 15' from stage / 15' from floor / dfc) DPA 4022's (x,y) -> Sound Device 702 (24/48) -> Card Reader -> Mac laptop -> CD Wave -> Audacity 1.2.6(dither /downsample/fade) -> FLAC (6). taped: Todd Trego. transfer: Chris Davis 
Source Information - Download Text | Download Zip
Outformation
The Pour House
James Island, SC
August 31, 2007 (Friday)

source:  DPA 4022's (x,y) -> Sound Device 702 (24/48)
location:  clamped to ceiling / 15' from stage / 15' from floor / dfc
Taped by Todd Trego

transfer:  Card Reader -> Mac laptop -> CD Wave -> Audacity 1.2.6 (dither/downsample/fade) -> FLAC (6)
transfer:  Chris Davis (9/6/07)

Disc 1:     (56:50)
Set 1:
01.  (4:47)   Camper
02.  (9:27)   Carnac
03.  (8:22)   Into My Arms
04.  (6:21)   Frenchy's Theme ->
05.  (10:52)  90
06.  (9:44)   Toy's Song ->
07.  (3:50)   Anymore ->
08.  (3:27)   Valley Blue

Disc 2:     (65:30)
Set 2:
01.  (3:09)   The Take Out ->
02.  (8:35)   Dark Severinsen
03.  (7:08)   Searchin' for a Rainbow ->
04.  (7:52)   Chicken Pickin' ->
05.  (13:19)  Long Lonely Road
06.  (9:31)   Game On ->
07.  (10:04)  'Bout My Money* ->
08.  (5:52)   Drums* ->

Disc 3:     (57:02)
Set 2 (cont.):
01.  (4:21)   CR solo ->
02.  (7:28)   Maggies Farm ->
03.  (3:46)   'Bout My Money

Encore:
04.  (4:50)   crowd
05.  (12:29)  Center Stage ->
06.  (6:53)   Sweet Louisiana
07.  (10:49)  Traveler's Rest
08.  (3:30)   Camper (reprise) ->
09.  (2:56)   Chicken Pickin' (reprise)%

*Robert Soto on percussion
%cut at very end of song, fade added
--thanks to Phelps for the 702.

first "Camper Reprise"
first "Chicken Pickin' Reprise"





Show Checksums
shntool
length expanded size cdr WAVE problems fmt ratio filename
4:47.30 50697404 B --- -- ----- wav 1.0000 of2007-08-31d1t01.wav
9:27.44 100122332 B --- -- ----- wav 1.0000 of2007-08-31d1t02.wav
8:22.04 88562252 B --- -- ----- wav 1.0000 of2007-08-31d1t03.wav
6:21.03 67215500 B --- -- ----- wav 1.0000 of2007-08-31d1t04.wav
10:52.21 115062236 B --- -- ----- wav 1.0000 of2007-08-31d1t05.wav
9:44.35 103099964 B --- -- ----- wav 1.0000 of2007-08-31d1t06.wav
3:50.18 40614380 B --- -- ----- wav 1.0000 of2007-08-31d1t07.wav
3:27.60 36655964 B --- -- ----- wav 1.0000 of2007-08-31d1t08.wav
3:09.59 33478412 B --- -- ----- wav 1.0000 of2007-08-31d2t01.wav
8:35.04 90855452 B --- -- ----- wav 1.0000 of2007-08-31d2t02.wav
7:08.30 75569804 B --- -- ----- wav 1.0000 of2007-08-31d2t03.wav
7:52.33 83338460 B --- -- ----- wav 1.0000 of2007-08-31d2t04.wav
13:19.03 140950700 B --- -- ----- wav 1.0000 of2007-08-31d2t05.wav
9:31.38 100813820 B --- -- ----- wav 1.0000 of2007-08-31d2t06.wav
10:04.30 106616204 B --- -- ----- wav 1.0000 of2007-08-31d2t07.wav
5:52.28 62158700 B --- -- ----- wav 1.0000 of2007-08-31d2t08.wav
4:21.09 46061612 B --- -- ----- wav 1.0000 of2007-08-31d3t01.wav
7:28.62 79173068 B --- -- ----- wav 1.0000 of2007-08-31d3t02.wav
3:46.23 39920540 B --- -- ----- wav 1.0000 of2007-08-31d3t03.wav
4:50.53 51280700 B --- -- ----- wav 1.0000 of2007-08-31d3t04.wav
12:29.13 132154220 B --- -- ----- wav 1.0000 of2007-08-31d3t05.wav
6:53.25 72912044 B --- -- ----- wav 1.0000 of2007-08-31d3t06.wav
10:49.58 114620060 B --- -- ----- wav 1.0000 of2007-08-31d3t07.wav
3:30.56 37175756 B --- -- ----- wav 1.0000 of2007-08-31d3t08.wav
2:56.60 31187564 B --- -- ----- wav 1.0000 of2007-08-31d3t09.wav
179:32.49 1900297148 B 1.0000 (25 files)
ffp
of2007-08-31d1t01.flac:0bbc07e64c0724e9c349a348d7f4e0a3
of2007-08-31d1t02.flac:ff5521127c6a1a4b3475ccef362814a7
of2007-08-31d1t03.flac:ca92b11d7d5e6b028b8eddc3cc52a4ca
of2007-08-31d1t04.flac:5d408c0b79e69b0cea9c514a10983082
of2007-08-31d1t05.flac:a83420030bef012ca78526425a795c5d
of2007-08-31d1t06.flac:9cf8f94a83b1b0ffd94241478cb31cf1
of2007-08-31d1t07.flac:5be0bcf446b489e57f2b8532ddb9a818
of2007-08-31d1t08.flac:e690eee2a9b73d71cf849105848e9292
of2007-08-31d2t01.flac:bd6c48edb329fe819e853d57611e344a
of2007-08-31d2t02.flac:8eec5ea722f072df4bbc8cd815896c67
of2007-08-31d2t03.flac:b3bb0e1c489a5cf1a0c6d181891c9d6e
of2007-08-31d2t04.flac:aad844811f6505dcd35d48c0601bc5a1
of2007-08-31d2t05.flac:7d3abfd8c3c85cb547d55ec4ee3a8d74
of2007-08-31d2t06.flac:b954536f55274436acaa3d2d065f598d
of2007-08-31d2t07.flac:c32573eb34f9019ac2b0111890e084fa
of2007-08-31d2t08.flac:d2b8e271596a9fb433d6d98fdf2769a0
of2007-08-31d3t01.flac:4216effda6addab0ab710b58c1b1fd97
of2007-08-31d3t02.flac:ccfa38105b2077d644d2ea7fae964812
of2007-08-31d3t03.flac:22328a164673cc1e72c744f3622b6795
of2007-08-31d3t04.flac:3cecda811ea1e7940a4a7b4d2d080059
of2007-08-31d3t05.flac:a37234ba7ba18b66d3fab7ae0c678dcd
of2007-08-31d3t06.flac:2f6141e4d00940fe34f7a1e2f16ec032
of2007-08-31d3t07.flac:c8eca95dc197e0acb71999bcc6c4a04b
of2007-08-31d3t08.flac:95d9a20fa15c866dc360f928cb0d7580
of2007-08-31d3t09.flac:f2bfe5a2ade6ccfd447f6d915a727c50

Comments
Add Comment
Date User Comment