Browse Collections Artists Sources   Search Dates

Add Show    List Management    Help


Phish 02/09/93
Auditorium Theater, Rochester, NY
Comments Add Comment    Source Collectors    Add to Collection    Add to Want List    History
Source # 87262 Other Sources
Entered by Ben Mohr
Checksums all_ffp , all_wav_md5
Disc Counts 2 / 3
Media Size
Date Circulated
Date Added
09/16/2007
09/16/2007
Source Summary AKG 460b/ck63 > Teac DA-P20 @48kHz; Tascam DA-20mkII > Tascam HD-P2 > WaveLab 5.01b (48>44.1kHz) > CDWav > FLAC; Taped by Terry Sullivan; Transferred by Jason Sobel 
Source Information - Download Text | Download Zip
Phish
February 9, 1993
Auditorium Theatre
Rochester, NY

source:
AKG 460b/ck63 > Teac DA-P20 (@ 48 kHz)

transfer:
Tascam DA-20MKII > Tascam HD-P2 > CF card > usb 2.0 > pc > WaveLab 5.01b (de-emphasis, fades, resample to 44.1 kHz, patch) > CD Wave v1.96.1 > FLAC v1.2.0 (Level 8)

FLAC tags added with metaflac v1.2.0

recorded by Terry Sullivan
transferred by Jason Sobel ([email protected])
seeded September 16, 2007

notes:
The original DAT recording was made with pre-emphasis.
The Waves Q10 Paragraphic EQ v5.0 plug-in was used to de-emphasize the recording.
The original 48 kHz .wav files from the DAT transfer have been archived, and are available upon request.
Big thanks to Dave Flaschner for letting me borrow his DAT tape!

Disc 1 - [71:30]
Set I
01 - [12:39] - David Bowie
02 - [03:38] - Bouncing Around the Room
03 - [02:55] - Poor Heart
04 - [06:58] - My Friend My Friend
05 - [06:16] - Rift
06 - [06:32] - The Wedge
07 - [07:28] - Chalk Dust Torture
08 - [10:31] - Esther ->
09 - [09:55] - Maze
10 - [04:38] - Golgi Apparatus

Disc 2 - [44:48]
Set II
01 - [07:38] - Punch You in the Eye ->
02 - [07:18] - Mike's Song >
03 - [03:19] - I Am Hydrogen >
04 - [09:58] - Weekapaug Groove
05 - [05:02] - Weigh
06 - [02:57] - My Sweet One
07 - [04:55] - Sample in a Jar
08 - [03:41] - Big Ball Jam

Disc 3 - [37:14]
Set II continued
01 - [10:21] - Stash ->
02 - [09:47] - The Lizards
03 - [01:20] - HYHU >
04 - [05:18] - Bike
05 - [01:59] - Amazing Grace
06 - [01:44] - encore break
07 - [04:16] - Cavern
08 - [02:28] - Rocky Top

note:
Amazing Grace, Cavern, and Rocky Top were missing from the DAT that Dave gave me.
These three songs have been spliced in with the following source:
AKG 460/ck63 > 45v custom > Teac DA-P20, Recorded by Tom McMinn
http://db.etree.org/shn/79703
I also de-emphasized Tom's source, as it was also recorded with pre-emphasis, but had never been de-emphasized.

------------------------------------------------------------------------------------------------

SHNtool output:

    length     expanded size   cdr  WAVE problems filename
    12:38.66      133866476    ---   --   ---xx   ph1993-02-09d1t01.flac
     3:37.39       38370572    ---   --   ---xx   ph1993-02-09d1t02.flac
     2:55.17       30910028    ---   --   ---xx   ph1993-02-09d1t03.flac
     6:57.51       73678796    ---   --   ---xx   ph1993-02-09d1t04.flac
     6:16.12       66354668    ---   --   ---xx   ph1993-02-09d1t05.flac
     6:31.66       69127676    ---   --   ---xx   ph1993-02-09d1t06.flac
     7:28.29       79095452    ---   --   ---xx   ph1993-02-09d1t07.flac
    10:30.71      111299036    ---   --   ---xx   ph1993-02-09d1t08.flac
     9:55.03      104965100    ---   --   ---xx   ph1993-02-09d1t09.flac
     4:38.21       49088636    ---   --   ---xx   ph1993-02-09d1t10.flac
     7:38.02       80795948    ---   --   ---xx   ph1993-02-09d2t01.flac
     7:17.64       77237372    ---   --   ---xx   ph1993-02-09d2t02.flac
     3:18.47       35037788    ---   --   ---xx   ph1993-02-09d2t03.flac
     9:58.19      105531932    ---   --   ---xx   ph1993-02-09d2t04.flac
     5:01.42       53195228    ---   --   ---xx   ph1993-02-09d2t05.flac
     2:57.13       31253420    ---   --   ---xx   ph1993-02-09d2t06.flac
     4:55.22       52089788    ---   --   ---xx   ph1993-02-09d2t07.flac
     3:41.00       38984444    ---   --   ---xx   ph1993-02-09d2t08.flac
    10:20.63      109516220    ---   --   ---xx   ph1993-02-09d3t01.flac
     9:47.19      103591532    ---   --   ---xx   ph1993-02-09d3t02.flac
     1:20.24       14168492    ---   --   ---xx   ph1993-02-09d3t03.flac
     5:18.23       56149340    ---   --   ---xx   ph1993-02-09d3t04.flac
     1:59.28       21057500    ---   --   ---xx   ph1993-02-09d3t05.flac
     1:43.51       18289196    ---   --   ---xx   ph1993-02-09d3t06.flac
     4:15.63       45130220    ---   --   ---xx   ph1993-02-09d3t07.flac
     2:28.00       26107244    ---   --   ---xx   ph1993-02-09d3t08.flac
   153:31.30     1624892104 B                     (totals for 26 files, 0.5484 overall compression ratio)

Show Checksums
all_ffp
ph1993-02-09d1t01.flac:355bbb8c8fa0886ff3057e58605f0005
ph1993-02-09d1t02.flac:bd5b02b4c7f507ef2d4f1d488827f6a0
ph1993-02-09d1t03.flac:6acf1ba83685d92211c4908cedd30b18
ph1993-02-09d1t04.flac:7f0d337e0daffbd4ddc0ad3f41bcaed6
ph1993-02-09d1t05.flac:58d8e96181cb3f848ba677a33696594a
ph1993-02-09d1t06.flac:d2e4c6eaa7c3adbc67519d21d364e846
ph1993-02-09d1t07.flac:c3439742a9c5097e81c4b641239797c8
ph1993-02-09d1t08.flac:85e334874e17df9290dceaf808bb910c
ph1993-02-09d1t09.flac:86e67c8a252a240a8ad9d8ce3f0564bd
ph1993-02-09d1t10.flac:ff1a3c25f1a1f93070306e50409fb690
ph1993-02-09d2t01.flac:407e28168bc9525ea83dff39329e36d5
ph1993-02-09d2t02.flac:82d91885ce2dc5d81a5ba1426357ea58
ph1993-02-09d2t03.flac:c7eecdb8116ab2af735fc512a19db0ac
ph1993-02-09d2t04.flac:253c82237466581ea247c72f1612a1bc
ph1993-02-09d2t05.flac:982d288de55bdf802686b67244448655
ph1993-02-09d2t06.flac:767404a6047b78f29b01a916647a8467
ph1993-02-09d2t07.flac:f05428b393d9d0c57e31f320b98cf380
ph1993-02-09d2t08.flac:091418c5938b0bc59ae24dee2126cdfc
ph1993-02-09d3t01.flac:71f8c6f3ea1403bbe2b68da70dd30f37
ph1993-02-09d3t02.flac:62bea9a0e60399b5669f24e8d2a7bdc7
ph1993-02-09d3t03.flac:522564fd2533abc31e6073a5b5fa8e05
ph1993-02-09d3t04.flac:7262904a3f951f88df78a93fb3bdeb70
ph1993-02-09d3t05.flac:a5a1479c74f3a910f6dab2d76bb7250e
ph1993-02-09d3t06.flac:d8a9e908d040ca1828074c8a243d926f
ph1993-02-09d3t07.flac:d16e0956d888e0fe7c5216106086f0ca
ph1993-02-09d3t08.flac:4413fef5c1f8de3ce72618f6b0697de3
all_wav_md5
c6dfb7431caf50dc4f82ec3178354bd3 *ph1993-02-09d1t01.wav
04e5139b31cbb7cf587cf2af021bc6c3 *ph1993-02-09d1t02.wav
e8354d1440f3777e5864c85db887342d *ph1993-02-09d1t03.wav
0719480b2c8fc4147ea0d00a96cbe9a6 *ph1993-02-09d1t04.wav
6a83258332ca0f2e983704257cb5a9dd *ph1993-02-09d1t05.wav
b2f28e0afc4f1055f3810261b2c4e9dd *ph1993-02-09d1t06.wav
e54e58abcb7d845b0e848453334a78f7 *ph1993-02-09d1t07.wav
5e0180cfc10405ee11c0bf794241eb75 *ph1993-02-09d1t08.wav
5fb8075356ba00a1a0a914fdf8d5300f *ph1993-02-09d1t09.wav
2750d7424bf57a10bdda34882e7ebc0b *ph1993-02-09d1t10.wav
9e4d8be0d52f2f9a2084b42bdb268d2f *ph1993-02-09d2t01.wav
ace26b433efb807357ee3ab3867e5236 *ph1993-02-09d2t02.wav
0c775938603e86d04e3fa7e4b4ad13e9 *ph1993-02-09d2t03.wav
ccdebd874257db48b67bb0f121a6f1f9 *ph1993-02-09d2t04.wav
d6b1a6a877ac86fe05c304cb799462cc *ph1993-02-09d2t05.wav
962de59a9f26fa4ce84f286f6dd69a07 *ph1993-02-09d2t06.wav
f7153ed73fb1c118901dfee43d987b49 *ph1993-02-09d2t07.wav
44af8bd02639066917ef8dd1b4335a8c *ph1993-02-09d2t08.wav
e4321d9ce0738ffdfed90bb0061bd10b *ph1993-02-09d3t01.wav
c906978f34ff795a6f5ee531102becca *ph1993-02-09d3t02.wav
e2f31912df011dea7d4c317e0d6b38fd *ph1993-02-09d3t03.wav
afc88daf1539472a55a732b3841057cb *ph1993-02-09d3t04.wav
0901fa71aa7759de144304b37ea2586f *ph1993-02-09d3t05.wav
ce5751dcd582f3daadddc53ba307801f *ph1993-02-09d3t06.wav
3ff20b2a848a96d4b904a3280443f0ac *ph1993-02-09d3t07.wav
321ebbe54359752fee47dd7b10a29a81 *ph1993-02-09d3t08.wav

Comments
Add Comment
Other Sources (comments)
Sennheiser ME-40 >... (1) AKG460/ck63 > 45v custom >... (0)
Date User Comment