Browse Collections Artists Sources   Search Dates

Add Show    List Management    Help


Grateful Dead 08/13/79
McNichols Sports Arena, Denver, CO
Comments Add Comment    Source Collectors    Add to Collection    Add to Want List    History
Source # 87271 Other Sources
Entered by Matt Vernon
Checksums ffp , flac-md5
Disc Counts 1 / 1
Media Size
Date Circulated
Date Added
09/17/2007
09/17/2007
Source Summary flac16; Set 1 only: SBD -> Cassette Master -> Dat/0 (48k) Transfer Info: Dat (Sony R500) -> Samplitude Professional v9.11 -> FLAC All Transfers and Mastering By Charlie Miller 
  Archive
Source Information - Download Text | Download Zip
Grateful Dead - August 13, 1979
McNichols Arena - Denver, CO
**Set One Only**

Recording Info:
SBD -> Cassette Master -> Dat/0 (48k)

Transfer Info:
Dat (Sony R500) -> Samplitude Professional v9.11 -> FLAC
(1 Disc Audio / 1 Disc FLAC)

All Transfers and Mastering By Charlie Miller
[email protected]
September 17, 2007

Notes:
-- Set One only

Set 1:
d1t01 - Tuning
d1t02 - Shakedown Street
d1t03 - Me And My Uncle ->
d1t04 - Big River
d1t05 - Candyman
d1t06 - El Paso
d1t07 - Friend Of The Devil
d1t08 - New Minglewood Blues
d1t09 - Althea ->
d1t10 - Lost Sailor ->
d1t11 - Deal


SHNTOOL OUTPUT:
    length     expanded size   cdr  WAVE problems filename
     1:24.19       14862332    ---   --   -----   gd79-08-13d1t01.wav
    12:02.52      127483148    ---   --   -----   gd79-08-13d1t02.wav
     3:07.68       33146780    ---   --   -----   gd79-08-13d1t03.wav
     7:58.68       84479180    ---   --   -----   gd79-08-13d1t04.wav
     7:59.48       84608540    ---   --   -----   gd79-08-13d1t05.wav
     3:54.20       41324684    ---   --   -----   gd79-08-13d1t06.wav
     9:17.13       98285420    ---   --   -----   gd79-08-13d1t07.wav
     7:02.65       74593724    ---   --   -----   gd79-08-13d1t08.wav
     8:35.27       90909548    ---   --   -----   gd79-08-13d1t09.wav
     7:13.44       76484732    ---   --   -----   gd79-08-13d1t10.wav
     5:14.05       55401404    ---   --   -----   gd79-08-13d1t11.wav
    73:50.54      781579492 B                     (totals for 11 files)


FLAC FINGERPRINT:

gd79-08-13d1t01.flac:b91663949cd2929b613cd9c387a8e909
gd79-08-13d1t02.flac:403d910d53ad0e9eaeb8bb3b5bbdc230
gd79-08-13d1t03.flac:1eb89ace2325fec894f94f00851d134c
gd79-08-13d1t04.flac:e00ae09164a147e1177853004a7b5e1e
gd79-08-13d1t05.flac:ed537147cc12450388e18e6a174b39a6
gd79-08-13d1t06.flac:79cb670005efd6fd0fb09a74ca7974ae
gd79-08-13d1t07.flac:c8b28e07d77d8fcfec9cda5f45762581
gd79-08-13d1t08.flac:def11f58a716329b0c38c9003791a106
gd79-08-13d1t09.flac:fb9012e9f012ae6a5adea593949e8daf
gd79-08-13d1t10.flac:3f54fe88e0c17da7f97bc1064b603f1a
gd79-08-13d1t11.flac:de8450d370497c697fe538ca0a0d328e
Show Checksums
ffp
gd79-08-13d1t01.flac:b91663949cd2929b613cd9c387a8e909
gd79-08-13d1t02.flac:403d910d53ad0e9eaeb8bb3b5bbdc230
gd79-08-13d1t03.flac:1eb89ace2325fec894f94f00851d134c
gd79-08-13d1t04.flac:e00ae09164a147e1177853004a7b5e1e
gd79-08-13d1t05.flac:ed537147cc12450388e18e6a174b39a6
gd79-08-13d1t06.flac:79cb670005efd6fd0fb09a74ca7974ae
gd79-08-13d1t07.flac:c8b28e07d77d8fcfec9cda5f45762581
gd79-08-13d1t08.flac:def11f58a716329b0c38c9003791a106
gd79-08-13d1t09.flac:fb9012e9f012ae6a5adea593949e8daf
gd79-08-13d1t10.flac:3f54fe88e0c17da7f97bc1064b603f1a
gd79-08-13d1t11.flac:de8450d370497c697fe538ca0a0d328e
flac-md5
d070c61ae73e0362e749d701e00fc47a *gd79-08-13d1t01.flac
c2e46c3bd05e017bb68bb08955748d49 *gd79-08-13d1t02.flac
dd1ac9a31889e16a1665a5daebb6cfcb *gd79-08-13d1t03.flac
bc552b2679095860bb498bda616b11e2 *gd79-08-13d1t04.flac
0b8cea5e73e6e28ebec4f1688cc34e17 *gd79-08-13d1t05.flac
bda7eb3dd70937397dd94962a8cb51d2 *gd79-08-13d1t06.flac
569e70288c8a4d6eb7e05d9301b7aa36 *gd79-08-13d1t07.flac
28db64b0836d91b5786069f8a3730bcf *gd79-08-13d1t08.flac
8829647aaed4af9684413ec272427a34 *gd79-08-13d1t09.flac
5e7547a16c17760eb3b71a44a06bbb53 *gd79-08-13d1t10.flac
433d7ace93aef8f5c8e729c6ddb96480 *gd79-08-13d1t11.flac

Comments
Add Comment
Other Sources (comments)
Sources: Primary: Master... (3) Master Audience Cassette;... (1) flac16; Recording... (0) flac16; Matrix by... (0)
Date User Comment