Browse Collections Artists Sources   Search Dates

Add Show    List Management    Help


Phish 02/07/93
Lisner, Washington, DC
Comments Add Comment    Source Collectors    Add to Collection    Add to Want List    History
Source # 87277 Other Sources
Entered by Ben Mohr
Checksums all_ffp , all_wav_md5
Disc Counts 2 / 3
Media Size
Date Circulated
Date Added
09/17/2007
09/17/2007
Source Summary AKG 460b/ck63 > Teac DA-P20 @48kHz; Tascam DA-20mkII > Tascam HD-P2 > WaveLab 5.01b (48>44.1kHz) > CDWave > FLAC; Taped by Terry Sullivan; Transferred by Jason Sobel 
Source Information - Download Text | Download Zip
Phish
February 7, 1993
Lisner Auditorium, George Washington University
Washington, DC

source:
AKG 460b/ck63 > Teac DA-P20 (@ 48 kHz)

transfer:
Tascam DA-20MKII > Tascam HD-P2 > CF card > usb 2.0 > pc > WaveLab 5.01b (de-emphasis, fades, resample to 44.1 kHz, patch) > CD Wave v1.96.1 > FLAC v1.2.0 (Level 8)

FLAC tags added with metaflac v1.2.0

recorded by Terry Sullivan
transferred by Jason Sobel ([email protected])
seeded September 17, 2007

notes:
The original DAT recording was made with pre-emphasis.
The Waves Q10 Paragraphic EQ v5.0 plug-in was used to de-emphasize the recording.
The original 48 kHz .wav files from the DAT transfer have been archived, and are available upon request.
Big thanks to Dave Flaschner for letting me borrow his DAT tape!

Disc 1 - [75:05]
Set I
01 - [05:17] - Suzy Greenberg >
02 - [02:09] - Buried Alive >
03 - [02:50] - Poor Heart
04 - [07:44] - It's Ice
05 - [03:56] - Sparkle
06 - [14:16] - Colonel Forbin's Ascent >
07 - [06:10] - The Famous Mockingbird >
08 - [06:12] - Rift
09 - [03:30] - I Didn't Know
10 - [09:06] - Split Open and Melt
11 - [05:26] - Fee
12 - [08:29] - Runaway Jim

Disc 2 - [45:45]
Set II
01 - [00:59] - intro
02 - [05:14] - Llama
03 - [05:26] - Fast Enough for You
04 - [02:24] - My Mind's Got a Mind of its Own
05 - [13:33] - Reba
06 - [11:00] - Tweezer
07 - [02:36] - Big Ball Jam
08 - [04:33] - Glide

Disc 3 - [54:40]
Set II continued
01 - [21:37] - You Enjoy Myself
02 - [09:30] - The Squirming Coil
03 - [03:31] - If I Only Had a Brain
04 - [02:55] - Tweezer Reprise
05 - [02:19] - encore break
06 - [02:34] - Amazing Grace
07 - [06:09] - Contact
08 - [06:06] - Big Black Furry Creature from Mars

show notes:
Trey dedicated Llama to Chelsea Clinton.
Trey, with huge balloon and flowers in hand, dedicated Amazing Grace to his sister on her 30th birthday.
Amazing Grace was performed without microphones.
Reba included odd variations on the "Bag it/tag it" lyrics, an atypical jam, and a Simpsons Signal.
The vocal jam in YEM included a brief piece of the traditional Clementine.
MMGAMOIO was played for the first time since May 6, 1992 (82 shows).

tech notes:
minor drop-out in "Suzy Greenberg" from [00:23] to [00:25]
some digi-noise in "Poor Heart" from [00:41] to [00:50]
these spots were patched with the following source:
"unknown audience source"
http://db.etree.org/shn/20977
I also de-emphasized the previously circulating "unknown audience" source, as it sounded
like it had been recorded with pre-emphasis.  I was then able to splice in the fixes without
cross-fades, meaning that the fix is completely seamless and you won't notice a thing.  This
also leads me to believe that the "unknown audience" source is the same as this source.
However, this new source/transfer is a nice improvement over the previously circulating source,
if for no other reason than the pre-emphasis has been addressed and the complete lineage is known.

----------------------------------------------------------------------------------------------------------

SHNtool output:

    length     expanded size   cdr  WAVE problems filename
     5:16.52       55864748    ---   --   ---xx   ph1993-02-07d1t01.flac
     2:08.61       22722716    ---   --   ---xx   ph1993-02-07d1t02.flac
     2:50.06       30002156    ---   --   ---xx   ph1993-02-07d1t03.flac
     7:44.29       81917852    ---   --   ---xx   ph1993-02-07d1t04.flac
     3:55.52       41576348    ---   --   ---xx   ph1993-02-07d1t05.flac
    14:16.00      150998444    ---   --   ---xx   ph1993-02-07d1t06.flac
     6:09.54       65218652    ---   --   ---xx   ph1993-02-07d1t07.flac
     6:11.63       65592620    ---   --   ---xx   ph1993-02-07d1t08.flac
     3:29.48       36980540    ---   --   ---xx   ph1993-02-07d1t09.flac
     9:06.15       96349724    ---   --   ---xx   ph1993-02-07d1t10.flac
     5:26.36       57591116    ---   --   ---xx   ph1993-02-07d1t11.flac
     8:29.32       89862908    ---   --   ---xx   ph1993-02-07d1t12.flac
     0:59.35       10489964    ---   --   ---xx   ph1993-02-07d2t01.flac
     5:14.33       55467260    ---   --   ---xx   ph1993-02-07d2t02.flac
     5:25.41       57426476    ---   --   ---xx   ph1993-02-07d2t03.flac
     2:23.61       25368716    ---   --   ---xx   ph1993-02-07d2t04.flac
    13:33.21      143462636    ---   --   ---xx   ph1993-02-07d2t05.flac
    10:59.39      116339372    ---   --   ---xx   ph1993-02-07d2t06.flac
     2:35.43       27443180    ---   --   ---xx   ph1993-02-07d2t07.flac
     4:32.71       48147836    ---   --   ---xx   ph1993-02-07d2t08.flac
    21:37.11      228816716    ---   --   ---xx   ph1993-02-07d3t01.flac
     9:30.10      100571564    ---   --   ---xx   ph1993-02-07d3t02.flac
     3:31.13       37251020    ---   --   ---xx   ph1993-02-07d3t03.flac
     2:54.45       30799484    ---   --   ---xx   ph1993-02-07d3t04.flac
     2:18.50       24460844    ---   --   ---xx   ph1993-02-07d3t05.flac
     2:33.41       27085676    ---   --   ---xx   ph1993-02-07d3t06.flac
     6:09.30       65162204    ---   --   ---xx   ph1993-02-07d3t07.flac
     6:05.56       64517756    ---   --   ---xx   ph1993-02-07d3t08.flac
   175:29.73     1857488528 B                     (totals for 28 files, 0.4848 overall compression ratio)

Show Checksums
all_ffp
ph1993-02-07d1t01.flac:97dfafde807a688efe452a3b0e8ef1d2
ph1993-02-07d1t02.flac:89a059812490b5039baed010ce39e26a
ph1993-02-07d1t03.flac:ab1bc499af276f46bd4ac68478ef783d
ph1993-02-07d1t04.flac:2d5f4c54465fea4c7eec0b5f811c1e1e
ph1993-02-07d1t05.flac:2947467eb85180c7453e8f295aa0d73b
ph1993-02-07d1t06.flac:14be64d013ea136d903de22821a44059
ph1993-02-07d1t07.flac:00e683e632da903170b7806bba52176f
ph1993-02-07d1t08.flac:6065e5dba03a18d89ee757bb1b7f5ffc
ph1993-02-07d1t09.flac:386692aefb8f7548ee8c298e55e7d53e
ph1993-02-07d1t10.flac:206e2249a70ad6d768017da65c6c597d
ph1993-02-07d1t11.flac:12c79d8ae7b8e5e0c09e6b594a462c0e
ph1993-02-07d1t12.flac:f0cc7ba88a0888e11259968370d1ffa9
ph1993-02-07d2t01.flac:016dd46cf4c8e38b1b44f4fac9530817
ph1993-02-07d2t02.flac:1ffde364d1adca3083ba0da27ebfa6a5
ph1993-02-07d2t03.flac:667dd4b27eb0078c2734f5433d97be84
ph1993-02-07d2t04.flac:6b1eda90f6e5bc6b83db1016f93357f7
ph1993-02-07d2t05.flac:ca1ec110cd90361d8a2242bf0391eb16
ph1993-02-07d2t06.flac:7460e1425bdb1d9961bac84ae8fcc5f6
ph1993-02-07d2t07.flac:ee080dc7c522c2ad735e9c037704122c
ph1993-02-07d2t08.flac:6eb81c1ce6cb1aba030a7c06c3a88dc7
ph1993-02-07d3t01.flac:f2332ad7a93c6c90a6593aec9d94e880
ph1993-02-07d3t02.flac:bd256b190aa1003c7bc529593fdd2192
ph1993-02-07d3t03.flac:01f5f1a4ba22dbdf190049cf950f7f47
ph1993-02-07d3t04.flac:fdd21eb1c4babaf788b8a54e437065db
ph1993-02-07d3t05.flac:e1e5fd5d81b3663f1f3139b9a7b1e738
ph1993-02-07d3t06.flac:cd33dffbf5e7dd1eaee90452915805ce
ph1993-02-07d3t07.flac:853b85369c0ccebf9c44176f51e851dd
ph1993-02-07d3t08.flac:6240fa09e3ce888c85f889cc66e2f141
all_wav_md5
d218a8aa2aa8b95c8c2fca54f5f12a6f *ph1993-02-07d1t01.wav
7b27e7ae1b47629f370edffcb9fb1461 *ph1993-02-07d1t02.wav
6c9f272be648bcc41ac187cf19868f66 *ph1993-02-07d1t03.wav
7278e5dfd37862f27801d446abb0f2ff *ph1993-02-07d1t04.wav
e73ab7b4ffaa279070effc32c61f8b43 *ph1993-02-07d1t05.wav
a63366c8d95f8c5a106f501cb1848b3d *ph1993-02-07d1t06.wav
6acdb25e4af1b773a7db51feef2dd797 *ph1993-02-07d1t07.wav
9ff3fa61830b1b1cc5d9b1423086f773 *ph1993-02-07d1t08.wav
77023d326b6cbaa09080de49898adb89 *ph1993-02-07d1t09.wav
d9c2ab344fd6d7843c3ba3c356a6b94e *ph1993-02-07d1t10.wav
e3424ef7a4d22e2ecf63a3f9602c6f32 *ph1993-02-07d1t11.wav
ba2018a152b4f30cddb20311a7b60559 *ph1993-02-07d1t12.wav
f2bbd1a350c5a4476fbed65b0aae69f2 *ph1993-02-07d2t01.wav
382accf7e41a0cb0ae034598b9563352 *ph1993-02-07d2t02.wav
43d0130a6c67d311f346031370ad0176 *ph1993-02-07d2t03.wav
3cac79248a4e9c1908bacba386064f16 *ph1993-02-07d2t04.wav
f25c6a853416b9d2fbf232eb09f11d16 *ph1993-02-07d2t05.wav
43f6ccf0e45e531a59695fad93b60759 *ph1993-02-07d2t06.wav
0547f0eced8a02f764ab3716235236e7 *ph1993-02-07d2t07.wav
d6ef13878ac61d38d9630a40ea7723c7 *ph1993-02-07d2t08.wav
938ae721746b72827e8567eb99f5c82f *ph1993-02-07d3t01.wav
09c9235e3d5be0cdf523006858f72f19 *ph1993-02-07d3t02.wav
0f16adea98d174eea5a3875bf305e439 *ph1993-02-07d3t03.wav
56e4bcaa1f2c11da777d75f52e8ff3cc *ph1993-02-07d3t04.wav
48d50601d469d2717a359ff046ade5ac *ph1993-02-07d3t05.wav
a28f62d5c53b6e2b6bf0b975c0bda26e *ph1993-02-07d3t06.wav
c28637bcfe83ea88f30abbf81cff76b0 *ph1993-02-07d3t07.wav
5972eac4f5297d4ce7c46adaee429f51 *ph1993-02-07d3t08.wav

Comments
Add Comment
Other Sources (comments)
AUD; Tascam DA-20mkII > ZA2... (0)
Date User Comment